Horror

Perkins 14 2009 DVDRIP XviD ZEKTORM

  • Download 5x Faster
  • Download torrent
  • Direct Download
  • Rate this torrent +  |  -
Perkins 14 2009 DVDRIP XviD ZEKTORM

Free and Direct Download with Usenet.nl 300GB+ free


Torrent info

Name:Perkins 14 2009 DVDRIP XviD ZEKTORM

Total Size: 707.00 MB

Magnet: Magnet Link

Seeds: 0

Leechers: 0

Stream: Watch Online @ Movie4u

Last Updated: 2010-09-27 17:32:52 (Update Now)

Torrent added: 2009-09-03 09:04:16





Torrent Files List


Perkins.14.2009.DVDRIP.XviD-ZEKTORM.avi (Size: 707.00 MB) (Files: 4)

 Perkins.14.2009.DVDRIP.XviD-ZEKTORM.avi

700.98 MB

 READ.hlp

11.42 KB

 Subs

  Perkins.14.2009.DVDRIP.XviD-ZEKTORM.idx

87.56 KB

  Perkins.14.2009.DVDRIP.XviD-ZEKTORM.sub

5.92 MB
 

Announce URL: http://tv.tracker.prq.to/announce

Torrent description

Title : Perkins 14
Year : 2009
Genre : Horror | Thriller
iMDB URL : http://www.imdb.com/title/tt1230211/

Complete name : Perkins.14.2009.DVDRIP.XviD-ZEKTORM.avi
Format : AVI
File size : 701 MiB
Duration : 1h 35mn
Overall bit rate : 1031 Kbps
Subtitles : English, Spanish (Format: VobSub)
Source : DVD NTSC

Video
Format : MPEG-4 Visual
Format profile : Streaming [email protected]
Codec ID : DX50
Codec ID/Hint : DivX 5
Duration : 1h 35mn
Bit rate : 896 Kbps
Width : 720 pixels
Height : 400 pixels
Display aspect ratio : 16/9
Frame rate : 23.976 fps
Resolution : 24 bits
Colorimetry : 4:2:0
Scan type : Progressive
Bits/(Pixel*Frame) : 0.130
Stream size : 609 MiB (87%)
Writing library : XviD

Audio
Format : MPEG Audio
Format version : Version 1
Format profile : Layer 3
Codec ID : 55
Codec ID/Hint : MP3
Duration : 1h 35mn
Bit rate mode : Constant
Bit rate : 128 Kbps
Minimum bit rate : 128 Kbps
Channel(s) : 2 channels
Sampling rate : 48.0 KHz
Resolution : 16 bits
Stream size : 87.0 MiB (12%)
Writing library : LAME3.98r
Encoding settings : CBR

related torrents

Torrent name

health leech seeds Size
 

comments (0)

Main Menu