Family

GREMLINS 1984 DVDRIP[ENG] KIDZCORNER&J T R

  • Download 5x Faster
  • Download torrent
  • Direct Download
  • Rate this torrent +  |  -
GREMLINS 1984 DVDRIP[ENG] KIDZCORNER&J T R

Free and Direct Download with Usenet.nl 300GB+ free


Torrent info

Name:GREMLINS 1984 DVDRIP[ENG] KIDZCORNER&J T R

Total Size: 802.31 MB

Magnet: Magnet Link

Seeds: 0

Leechers: 0

Stream: Watch Online @ Movie4u

Last Updated: 2016-07-30 05:45:03 (Update Now)

Torrent added: 2009-09-03 08:59:34





Torrent Files List


[AllCDCovers]_gremlins_1984_r1_retail_dvd-front.jpg (Size: 802.31 MB) (Files: 4)

 [AllCDCovers]_gremlins_1984_r1_retail_dvd-front.jpg

1.61 MB

 GREM1.avi

800.70 MB

 Torrent downloaded from Demonoid.com.txt

0.05 KB

 Tracked by moviesb4time.biz.txt

1.35 KB
 

tracker

leech seeds
 

Torrent description

Don't ever get it wet. Keep it away from bright light. And no matter how much it cries, no matter how much it begs--never, ever feed it after midnight. With these three instructions, young Billy Peltzer takes possession of his cuddly new pet. Billy will get a whole lot more than he bargained for...

General
Complete name : C:\Users\joker\Documents\GREMLINS-1984- DVDRIP[ENG]-KIDZCORNER&J.T.R\GREM1.avi
Format : AVI
Format/Info : Audio Video Interleave
File size : 801 MiB
Duration : 1h 41mn
Overall bit rate : 1 098 Kbps
Writing application : FairUse Wizard - http://fairusewizard.com
Writing library : The best and REALLY easy backup tool

Video
Format : MPEG-4 Visual
Format profile : [email protected]
Format settings, BVOP : No
Format settings, QPel : No
Format settings, GMC : No warppoints
Format settings, Matrix : Default
Codec ID : XVID
Codec ID/Hint : XviD
Duration : 1h 41mn
Bit rate : 960 Kbps
Width : 688 pixels
Height : 384 pixels
Display aspect ratio : 16/9
Frame rate : 25.000 fps
Resolution : 24 bits
Colorimetry : 4:2:0
Scan type : Progressive
Bits/(Pixel*Frame) : 0.145
Stream size : 700 MiB (87%)
Writing library : XviD 1.2.0.dev47 (UTC 2006-11-01)

Audio
Format : MPEG Audio
Format version : Version 1
Format profile : Layer 3
Codec ID : 55
Codec ID/Hint : MP3
Duration : 1h 41mn
Bit rate mode : Constant
Bit rate : 128 Kbps
Minimum bit rate : 128 Kbps
Channel(s) : 2 channels
Sampling rate : 48.0 KHz
Resolution : 16 bits
Stream size : 93.3 MiB (12%)
Alignment : Aligned on interleaves
Interleave, duration : 40 ms (1.00 video frame)
Interleave, preload duration : 504 ms
Writing library : LAME3.97
Encoding settings : CBR

related torrents

Torrent name

health leech seeds Size
 

comments (0)

Main Menu