Religion

Tazkirah Ar Razi EP02 XviD38 HafizAdam avi

  • Download 5x Faster
  • Download torrent
  • Direct Download
  • Rate this torrent +  |  -
Tazkirah Ar Razi EP02 XviD38 HafizAdam avi

Anonymous and Free Direct Download 300GB+


Torrent info

Name:Tazkirah Ar Razi EP02 XviD38 HafizAdam avi

Total Size: 286.14 MB

Magnet: Magnet Link

Seeds: 0

Leechers: 0

Stream: Watch Online @ Movie4u

Last Updated: 2016-01-30 20:40:57 (Update Now)

Torrent added: 2009-09-03 08:49:08



VPN For Torrents

Torrent Files List


Tazkirah.Ar.Razi.EP02.XviD38-HafizAdam.avi (Size: 286.14 MB) (Files: 1)

 Tazkirah.Ar.Razi.EP02.XviD38-HafizAdam.avi

286.14 MB
 

tracker

leech seeds
 

Torrent description

Perkongsian dari Ustaz Fakhrurazi mengenai Makrifatullah.
Tarikh: 27 Mei 2009
Tempat: Rumah Paeid
Masa: 1800-1930

ScreenShot

General
Format : AVI
Format/Info : Audio Video Interleave
File size : 286 MiB
Duration : 1h 4mn
Overall bit rate : 622 Kbps
Director : Muhammad Hafiz Adam
Encoded by : Muhammad Hafiz Adam
Writing application : VirtualDubMod 1.5.10.2 (build 2540/release)
Writing library : VirtualDubMod build 2540/release
Copyright : Creative Designer
Comment : http://akudarahanakmalaysia.blogspot.com

Video
Format : MPEG-4 Visual
Format profile : Streaming [email protected]
Format settings, BVOP : Yes
Format settings, QPel : No
Format settings, GMC : No warppoints
Format settings, Matrix : Default
Codec ID : XVID
Codec ID/Hint : XviD
Duration : 1h 4mn
Bit rate : 485 Kbps
Width : 720 pixels
Height : 406 pixels
Display aspect ratio : 16/9
Frame rate : 25.000 fps
Resolution : 24 bits
Colorimetry : 4:2:0
Scan type : Progressive
Bits/(Pixel*Frame) : 0.066
Stream size : 223 MiB (78%)
Writing library : XviD 50

Audio
Format : MPEG Audio
Format version : Version 1
Format profile : Layer 3
Codec ID : 55
Codec ID/Hint : MP3
Duration : 1h 4mn
Bit rate mode : Constant
Bit rate : 128 Kbps
Channel(s) : 2 channels
Sampling rate : 44.1 KHz
Resolution : 16 bits
Stream size : 58.9 MiB (21%)
Alignment : Split accross interleaves
Interleave, duration : 40 ms (1.00 video frame)
Interleave, preload duration : 500 ms

related torrents

Torrent name

health leech seeds Size
 


comments (0)

Main Menu