Gore Flicks

The Wizard of Gore 1970 UNCUT XviD DVDRip KooKoo [1337x]

  • Download 5x Faster
  • Download torrent
  • Direct Download
  • Rate this torrent +  |  -
The Wizard of Gore 1970 UNCUT XviD DVDRip KooKoo [1337x]

Free and Direct Download with Usenet 300GB+ free


Torrent info

Name:The Wizard of Gore 1970 UNCUT XviD DVDRip KooKoo [1337x]

Total Size: 756.65 MB

Magnet: Magnet Link

Seeds: 1

Leechers: 1

Stream: Watch Online @ Movie4u

Last Updated: 2015-09-19 21:15:45 (Update Now)

Torrent added: 2009-09-03 08:10:45




Torrent Files List


1337x.txt (Size: 756.65 MB) (Files: 3)

 1337x.txt

0.02 KB

 KooKoo.nfo

2.83 KB

 The Wizard of Gore-1970-UNCUT-XviD-DVDRip-KooKoo.avi

756.65 MB
 

tracker

leech seeds
 

Torrent description

--KooKoo--



Movie Name: The Wizard Of Gore
Genre: Horror
Release Date: 1970
Country: USA
Certification: NR
IMDB Link: http://www.imdb.com/title/tt0066578/

Plot: A TV talk-show hostess and her boyfriend investigate a shady
magician whom has the ability to hypnotize and control the
thoughts of people in order to stage gory on-stage illusions using
his powers of mind bending.



Rip Details:

The Wizard of Gore-1970-UNCUT-XviD-DVDRip-KooKoo


Format : AVI
Format/Info : Audio Video Interleave
File size : 757 MiB
Duration : 1h 35mn
Overall bit rate : 1112 Kbps
Writing application : VirtualDubMod 1.5.10.2 (build 2540/release)
Writing library : VirtualDubMod build 2540/release
Copyright : Ripped By KooKoo

Video
Format : MPEG-4 Visual
Format profile : Streaming [email protected]
Format settings, BVOP : Yes
Format settings, QPel : No
Format settings, GMC : No warppoints
Format settings, Matrix : Default
Muxing mode : Packet Bitstream
Codec ID : XVID
Codec ID/Hint : XviD
Duration : 1h 35mn
Bit rate : 975 Kbps
Width : 512 pixels
Height : 368 pixels
Display aspect ratio : 1.391
Frame rate : 23.976 fps
Resolution : 8 bits
Colorimetry : 4:2:0
Scan type : Progressive
Bits/(Pixel*Frame) : 0.216
Stream size : 663 MiB (88%)
Writing library : XviD 1.2.0.dev47 (UTC 2006-11-01)

Audio
Format : MPEG Audio
Format version : Version 1
Format profile : Layer 3
Codec ID : 55
Codec ID/Hint : MP3
Duration : 1h 35mn
Bit rate mode : Constant
Bit rate : 128 Kbps
Minimum bit rate : 128 Kbps
Channel(s) : 2 channels
Sampling rate : 48.0 KHz
Resolution : 16 bits
Stream size : 87.1 MiB (12%)
Alignment : Aligned on interleaves
Interleave, duration : 42 ms (1.00 video frame)
Interleave, preload duration : 504 ms
Writing library : LAME3.97
Encoding settings : CBR



Additional Details: Audio is in English and subtitles are
NOT included



--1337x--

related torrents

Torrent name

health leech seeds Size
 

comments (0)

Main Menu