Other

Through A Glass Darkly 1961 DVDRip x264 AC3 KARiNA

  • Download 5x Faster
  • Download torrent
  • Direct Download
  • Rate this torrent +  |  -
Through A Glass Darkly 1961 DVDRip x264 AC3 KARiNA

Free and Direct Download with Usenet.nl 300GB+ free


Torrent info

Name:Through A Glass Darkly 1961 DVDRip x264 AC3 KARiNA

Total Size: 1.50 GB

Magnet: Magnet Link

Seeds: 2

Leechers: 1

Stream: Watch Online @ Movie4u

Last Updated: 2015-07-19 11:40:10 (Update Now)

Torrent added: 2009-09-03 08:00:31





Torrent Files List


Through.A.Glass.Darkly.1961.DVDRip.x264.AC3-KARiNA.mkv (Size: 1.50 GB) (Files: 2)

 Through.A.Glass.Darkly.1961.DVDRip.x264.AC3-KARiNA.mkv

1.50 GB

 tagd-KARiNA.nfo

5.58 KB
 

tracker

leech seeds
 

Torrent description

8 a8P db 88888888ba 88 888b 88 db
88 ,88' d88b 88 "8b "" 8888b 88 d88b
88 ,88" d8'`8b 88 ,8P 88 `8b 88 d8'`8b
88,d88' d8' `8b 88aaaaaa8P' 88 88 `8b 88 d8' `8b
8888"88, d8YaaaaY8b 88""""88' 88 88 `8b 88 d8YaaaaY8b
88P Y8b d8""""""""8b 88 `8b 88 88 `8b 88 d8""""""""8b
88 "88, d8' `8b 88 `8b 88 88 `8888 d8' `8b
88 Y8b d8' `8b 88 `8b 88 88 `888 d8' `8b
-------------------------------------------------------------------------------
-------------------------------------
[ Through.A.Glass.Darkly.1961.DVDRip.x264.AC3-KARiNA.mkv ]
-------------------------------------

==================================[ Synopsis ]==================================

Through a Glass Darkly | Sweden | 1961 | Directed by Ingmar Bergman

While vacationing on a remote island retreat, a family's already fragile ties are
tested when daughter Karin (Harriet Andersson) discovers her father has been using
her schizophrenia for his own literary means. As she drifts in and out of lucidity,
the father (Gunnar Bjornstrand), along with Karin's husband (Max von Sydow) and her
younger brother (Lars Passgad) are unable to prevent Karin's harrowing descent
into the abyss of mental illness. Winner of the 1962 Academy Award for Best Foreign
Language Film and featuring an astonishing lead performance by Andersson, Through a
Glass Darkly presents an unflinching vision of a family's near disintegration and a
tortured psyche further taunted by God's intangible presence.

[ IMdB: http://www.imdb.com/title/tt0055499 | Rating: 8.0 / 10 (4,366 votes) ]

=================================[ General ]===================================

Complete name : Through.A.Glass.Darkly.1961.DVDRip.x264.AC3-KARiNA.mkv
Format : Matroska
File size : 1.50 GiB
Duration : 1h 29mn
Overall bit rate : 2 389 Kbps
Source : Criterion NTSC DVD9

=================================[ Video ]=====================================

Format : AVC
Codec ID : V_MPEG4/ISO/AVC
Bit rate : 1 957 Kbps
Nominal bit rate : 2 000 Kbps
Width : 720 pixels
Height : 480 pixels
Display aspect ratio : 4/3
Frame rate : 23.976 fps
Standard : NTSC
Resolution : 24 bits
Colorimetry : 4:2:0
Scan type : Progressive
Bits/(Pixel*Frame) : 0.236
Stream size : 1.23 GiB (82%)
Title : Track 1
Writing library : x264 core 65

=================================[ Audio ]=====================================

[] Track 1

Format : AC-3
Codec ID : A_AC3
Bit rate mode : Constant
Bit rate : 192 Kbps
Channel(s) : 1 channel
Channel positions : C
Sampling rate : 48.0 KHz
Stream size : 123 MiB (8%)
Title : Track 1
Language : Swedish

[] Track 2 - English dub

Format : AC-3
Codec ID : A_AC3
Bit rate mode : Constant
Bit rate : 192 Kbps
Channel(s) : 1 channel
Channel positions : C
Sampling rate : 48.0 KHz
Stream size : 123 MiB (8%)
Title : Track 2 - (Dub)
Language : English

=================================[ Subtitles ]=================================

Format : UTF-8
Codec ID : S_TEXT/UTF8
Title : Track 1
Language : English

=================================[ Chapters ]==================================

00:00:00.000 : :Chapter 1
00:01:54.383 : :Chapter 2
00:06:29.325 : :Chapter 3
00:09:51.527 : :Chapter 4
00:14:14.790 : :Chapter 5
00:21:06.201 : :Chapter 6
00:24:38.746 : :Chapter 7
00:31:32.660 : :Chapter 8
00:37:43.030 : :Chapter 9
00:42:47.701 : :Chapter 10
00:46:57.083 : :Chapter 11
00:53:38.151 : :Chapter 12
00:59:54.643 : :Chapter 13
01:06:52.444 : :Chapter 14
01:13:20.832 : :Chapter 15
01:18:42.153 : :Chapter 16
01:26:39.797 : :Chapter 17
01:29:54.692 : :Chapter 18

=================================[ KARiNA ]===================================

related torrents

Torrent name

health leech seeds Size
 

comments (0)

Main Menu