Other

The Seventh Seal 1957 CRITERION DVDRip x264 AC3 KARiNA

  • Download 5x Faster
  • Download torrent
  • Direct Download
  • Rate this torrent +  |  -
The Seventh Seal 1957 CRITERION DVDRip x264 AC3 KARiNA

Anonymous and Free Direct Download 300GB+


Torrent info

Name:The Seventh Seal 1957 CRITERION DVDRip x264 AC3 KARiNA

Total Size: 1.76 GB

Magnet: Magnet Link

Seeds: 0

Leechers: 0

Stream: Watch Online @ Movie4u

Last Updated: 2012-09-01 19:13:05 (Update Now)

Torrent added: 2009-09-03 08:00:00



VPN For Torrents

Torrent Files List


The.Seventh.Seal.1957.CRITERION.DVDRip.x264.AC3-KARiNA.mkv (Size: 1.76 GB) (Files: 3)

 The.Seventh.Seal.1957.CRITERION.DVDRip.x264.AC3-KARiNA.mkv

1.76 GB

 seventhseal-KARiNA.nfo

5.96 KB

 Torrent downloaded from Demonoid.com.txt

0.05 KB
 

Announce URL:

Torrent description

888 d8P d8888 8888888b. d8b 888b 888 d8888
888 d8P d88888 888 Y88b Y8P 8888b 888 d88888
888 d8P d88P888 888 888 88888b 888 d88P888
888d88K d88P 888 888 d88P 888 888Y88b 888 d88P 888
8888888b d88P 888 8888888P" 888 888 Y88b888 d88P 888
888 Y88b d88P 888 888 T88b 888 888 Y88888 d88P 888
888 Y88b d8888888888 888 T88b 888 888 Y8888 d8888888888
888 Y88b d88P 888 888 T88b 888 888 Y888 d88P 888

The.Seventh.Seal.1957.CRITERION.DVDRip.x264.AC3-KARiNA.mkv

Synopsis.

The Seventh Seal | Sweden | 1957 | Directed by Ingmar Bergman

Disillusioned and exhausted after a decade of battling in the Crusades, a knight
(Max von Sydow) encounters Death on a desolate beach and challenges him to a fateful
game of chess. Much studied, imitated, even parodied, but never outdone, Bergman's
stunning allegory of man's search for meaning, The Seventh Seal (Det sjunde inseglet),
was one of the benchmark foreign imports of America's 1950s art-house heyday,
pushing cinema's boundaries and ushering in a new era of moviegoing. This 2009 reissue
by The Criterion Collection of one of their first DVD releases contains a new,
restored high-definition digital transfer, improved English subtitles, and a commentary
track by Bergman scholar Peter Cowie.

IMdB: http://www.imdb.com/title/tt0050976/ | Rating: 8.4 / 10 (31,260 votes)

General.

Complete name : The.Seventh.Seal.1957.CRITERION.DVDRip.x264.AC3-KARiNA.mkv
Format : Matroska
File size : 1.76 GiB
Duration : 1h 37mn
Overall bit rate : 2 581 Kbps
Source : Criterion NTSC DVD9

Video.

Format : AVC
Codec ID : V_MPEG4/ISO/AVC
Bit rate : 1 953 Kbps
Nominal bit rate : 2 000 Kbps
Width : 768 pixels
Height : 576 pixels
Display aspect ratio : 4/3
Frame rate : 23.976 fps
Resolution : 24 bits
Colorimetry : 4:2:0
Scan type : Progressive
Bits/(Pixel*Frame) : 0.184
Stream size : 1.33 GiB (76%)
Writing library : x264 core 65

Audio.

[]Track 1

Format : AC-3
Codec ID : A_AC3
Bit rate mode : Constant
Bit rate : 192 Kbps
Channel(s) : 1 channel
Channel positions : C
Sampling rate : 48.0 KHz
Stream size : 134 MiB (7%)
Language : Swedish

[]Track 2 - Commentary by Bergman scholar Peter Cowie

Format : AC-3
Codec ID : A_AC3
Bit rate mode : Constant
Bit rate : 192 Kbps
Channel(s) : 1 channel
Channel positions : C
Sampling rate : 48.0 KHz
Stream size : 134 MiB (7%)
Language : English

[]Track 3 - English dub

Format : AC-3
Codec ID : A_AC3
Bit rate mode : Constant
Bit rate : 192 Kbps
Channel(s) : 1 channel
Channel positions : C
Sampling rate : 48.0 KHz
Stream size : 134 MiB (7%)
Language : English

Subtitles.

Format : VobSub
Codec ID : S_VOBSUB
Title : Track 1
Language : English

KARiNA.

related torrents

Torrent name

health leech seeds Size
 


comments (0)

Main Menu