Other

Plus Tard Tu Comprendras 2009 HDTV XviD HORIZON lletaif avi

  • Download 5x Faster
  • Download torrent
  • Direct Download
  • Rate this torrent +  |  -

Torrent info

Name:Plus Tard Tu Comprendras 2009 HDTV XviD HORIZON lletaif avi

Total Size: 700.06 MB

Magnet: Magnet Link

Seeds: 0

Leechers: 0

Stream: Watch Full Movie @ Movie4u

Last Updated: 2010-07-31 13:11:47 (Update Now)

Torrent added: 2009-09-03 07:50:06



VPN For Torrents

Torrent Files List


Plus.Tard.Tu.Comprendras.2009.HDTV.XviD.HORIZON.lletaif.avi (Size: 700.06 MB) (Files: 1)

 Plus.Tard.Tu.Comprendras.2009.HDTV.XviD.HORIZON.lletaif.avi

700.06 MB
 

Announce URL: http://open.tracker.thepiratebay.org/announce

Torrent description

lletaif e Grupo HORIZON tem o orgulho de apresentar, o novo filme do mestre israelense Amos Gitai

Plus Tard tu Comprendras (2009) Aka One Day You'll Understand

Director: Amos Gitai

Writers: Jérôme Clément (autobiography) and Dan Franck (screenplay)

Cast:
Jeanne Moreau ... Rivka
Hippolyte Girardot ... Victor
Emmanuelle Devos ... Françoise
Dominique Blanc ... Tania
Daniel Duval ... Georges Gornick
Denise Aron-Schropfer ... Sipa Gornick
Samuel Cohen ... Louis
Mouna Soualem ... Esther
Serge Moati ... Le pharmacien
Max Denes ... Le commissaire-priseur

Runtime: 90 min

Country: France | Germany | Israel

Language: French

Plot: A man endeavors to collect memories of his grandparents who died in a concentration camp during the Holocaust.

Release notes:

Geral
Name :Plus.Tard.Tu.Comprendras.2009.HDTV.XviD.HORIZON.lletaif
Format : AVI
Format/Info : Audio Video Interleave
File size : 700 MiB
Duration : 1h 29mn
Overall bit rate : 1 098 Kbps
Writing application : VirtualDubMod 1.5.4.1 (build 2178/release)
Writing library : VirtualDubMod build 2178/release

Vídeo
Format : MPEG-4 Visual
Format profile : Streaming [email protected]
Format settings, BVOP : Sim
Format settings, QPel : Não
Format settings, GMC : 0 warppoint
Format settings, Matrix : Personalizada
Codec ID : XVID
Codec ID/Hint : XviD
Duration : 1h 29mn
Bit rate : 995 Kbps
Width : 640 pixel(s)
Height : 384 pixel(s)
Display aspect ratio : 1.667
Frame rate : 25,000 fps
Resolution : 24 bits
Colorimetry : 4:2:0
Scan type : Progressivo
Bits/(Pixel*Frame) : 0.162
Stream size : 634 MiB (91%)
Writing library : XviD 1.1.2 (UTC 2006-11-01)

Áudio
Format : MPEG Audio
Format version : Version 1
Format profile : Layer 3
Codec ID : 55
Codec ID/Hint : MP3
Duration : 1h 29mn
Bit rate mode : Constante
Bit rate : 96,0 Kbps
Minimum bit rate : 96,0 Kbps
Channel(s) : 2 canal/canais
Sampling rate : 32,0 KHz
Resolution : 16 bits
Stream size : 61,2 MiB (9%)
Interleave, duration : 80 ms (2.00 video frames)
Interleave, preload duration : 504 ms
Writing library : LAME3.97
Encoding settings : CBR

Please guys, seed. This is premiere in bittorrent in the world.

related torrents

Torrent name

health leech seeds Size
 


comments (0)

Main Menu

 

script data-cfasync="false" src="//d2ghscazvn398x.cloudfront.net/?cshgd=690275">