Fantasy

ARK (2004) eestikeeles

  • Download 5x Faster
  • Download torrent
  • Direct Download
  • Rate this torrent +  |  -
ARK (2004) eestikeeles

Anonymous and Direct Download 300GB+ free


Torrent info

Name:ARK (2004) eestikeeles

Total Size: 903.92 MB

Magnet: Magnet Link

Seeds: 0

Leechers: 0

Stream: Watch Online @ Movie4u

Last Updated: 2015-07-30 15:01:51 (Update Now)

Torrent added: 2009-09-03 07:47:51




Torrent Files List


ARK.avi (Size: 903.92 MB) (Files: 1)

 ARK.avi

903.92 MB
 

tracker

leech seeds
 

Torrent description

Laegas (ark)2004 3d multikas. eestikeeles.

Kaks rahvaid ühel ja samal planeedil, üks rassi domineerivad teistele, on jätta oma Doomed planeedi enne selle liiga hilja. Seega, kui Papitar, Amial alates vastulause inimesed konstruktid pimedas, hiid robot, et võtta neid kõiki teise planet.But siis põhjustel, teadmata, et ta kadunud. Sada aastat hiljem, ja nad on endiselt vaeste märkis planeedi, kuid on ka kuulujutud umbes Amial tütar saab olla piloot pimedas, sest paljud teadlased ei saa kunagi nihutamiseks. Kas lapsendatud laps on üldise olla? Järeldus oli suur ja lõpetamise ning animatsioon oli ilus. Ma arvasin, et vaatasin elada tegutsemist mõned punktid. Kui te ei meeles filmi, mis on paar cheesy read siin ja seal, ja sa näiteks animafilme, võite nautida seda. Ma tegin. Hea Tamine Euroopa filme.






Video
Format : MPEG-4 Visual
Format profile : [email protected]
Format settings, BVOP : No
Format settings, QPel : No
Format settings, GMC : No warppoints
Format settings, Matrix : Default
Codec ID : XVID
Codec ID/Hint : XviD
Duration : 1h 29mn
Bit rate : 1 023 Kbps
Width : 720 pixels
Height : 402 pixels
Display aspect ratio : 16/9
Frame rate : 25.000 fps
Resolution : 24 bits
Colorimetry : 4:2:0
Scan type : Progressive
Bits/(Pixel*Frame) : 0.141
Stream size : 655 MiB (72%)
Writing library : XviD 55
Audio
Format : AC-3
Format/Info : Audio Coding 3
Codec ID : 2000
Bit rate mode : Constant
Bit rate : 384 Kbps
Channel(s) : 6 channels
Channel positions : Front: L C R, Surround: L R, LFE
Sampling rate : 48.0 KHz
Stream size : 246 MiB (27%)
Alignment : Aligned on interleaves
Interleave, duration : 64 ms (1.60 video frames)
Interleave, preload duration : 192 ms

related torrents

Torrent name

health leech seeds Size
 


comments (0)

Main Menu