Other

My Life To Live 1962 DVDRip x264 AC3 KARiNA

  • Download 5x Faster
  • Download torrent
  • Direct Download
  • Rate this torrent +  |  -
My Life To Live 1962 DVDRip x264 AC3 KARiNA

Free and Direct Download with Usenet.nl 300GB+ free


Torrent info

Name:My Life To Live 1962 DVDRip x264 AC3 KARiNA

Total Size: 1.30 GB

Magnet: Magnet Link

Seeds: 0

Leechers: 0

Stream: Watch Online @ Movie4u

Last Updated: 2016-08-20 19:21:09 (Update Now)

Torrent added: 2009-09-03 07:45:16





Torrent Files List


mltl-KARiNA.nfo (Size: 1.30 GB) (Files: 2)

 mltl-KARiNA.nfo

5.41 KB

 My.Life.To.Live.1962.DVDRip.x264.AC3-KARiNA.mkv

1.30 GB
 

tracker

leech seeds
 

Torrent description

88 a8P db 88888888ba 88 888b 88 db
88 ,88' d88b 88 "8b "" 8888b 88 d88b
88 ,88" d8'`8b 88 ,8P 88 `8b 88 d8'`8b
88,d88' d8' `8b 88aaaaaa8P' 88 88 `8b 88 d8' `8b
8888"88, d8YaaaaY8b 88""""88' 88 88 `8b 88 d8YaaaaY8b
88P Y8b d8""""""""8b 88 `8b 88 88 `8b 88 d8""""""""8b
88 "88, d8' `8b 88 `8b 88 88 `8888 d8' `8b
88 Y8b d8' `8b 88 `8b 88 88 `888 d8' `8b
-------------------------------------------------------------------------------
-------------------------------------
[ My.Life.To.Live.1962.DVDRip.x264.AC3-KARiNA.mkv ]
-------------------------------------

==================================[ Synopsis ]==================================

My Life to Live [Vivre sa vie] | France | 1962 | Directed by Jean-Luc Godard

Godard's poetic treatment of one woman? slide into the oldest profession in the
world stars his then-wife (and muse), the enigmatically lovely Anna Karina. The
film opens with a quote by Montaigne: ?end yourself to others, but give yourself
to yourself.?Told in 12 sections, the film charts the attempt by Nana (Karina) to
do just that. Nana leaves her husband and child with a vague notion of becoming an
actress. In one of the film? most remarkable moments, Raoul Coutard? lustrous
black-and-white camera captures Karina? rapt, tear-stained identification with
Maria Falconetti's transcendent performance in Carl Dreyer? The Passion of Joan
of Arc. But Nana drifts into prostitution instead. Godard? treatment of the theme
is almost case-study objective, but he manages something very intimate and heartfelt
here. ?he camera by its discipline discourages us from interpreting Nana? life in
a melodramatic way. Curious, then, how moving Anna Karina makes Nana. She waits,
she drinks, she smokes, she walks the streets, she makes some money, she turns
herself over to the first pimp she meets, she gives up control of her life. The
effect is astonishing. It is clear, astringent, unsentimental, and abrupt. Then it
is over. It was her life to live.

[ IMdB: http://www.imdb.com/title/tt0056663 | Rating: 8.0 / 10 (3,660 votes) ]

=================================[ General ]===================================

Complete name : My.Life.To.Live.1962.DVDRip.x264.AC3-KARiNA.mkv
Format : Matroska
File size : 1.30 GiB
Duration : 1h 23mn
Overall bit rate : 2 225 Kbps
Source : Fox Lorber NTSC DVD5

=================================[ Video ]=====================================

Format : AVC
Codec ID : V_MPEG4/ISO/AVC
Bit rate : 1 956 Kbps
Nominal bit rate : 2 000 Kbps
Width : 720 pixels
Height : 480 pixels
Display aspect ratio : 4/3
Frame rate : 23.976 fps
Standard : NTSC
Resolution : 24 bits
Colorimetry : 4:2:0
Scan type : Progressive
Bits/(Pixel*Frame) : 0.236
Stream size : 1.14 GiB (88%)
Title : Track 1
Writing library : x264 core 65

=================================[ Audio ]=====================================

Format : AC-3
Codec ID : A_AC3
Bit rate mode : Constant
Bit rate : 224 Kbps
Channel(s) : 2 channels
Channel positions : L R
Sampling rate : 48.0 KHz
Stream size : 134 MiB (10%)
Title : Track 1
Language : French

=================================[ Subtitles ]=================================

Format : UTF-8
Codec ID : S_TEXT/UTF8
Title : Track 1
Language : English

=================================[ Chapters ]==================================

00:00:00.000 : :Chapter 1
00:02:39.826 : :Chapter 2
00:09:16.672 : :Chapter 3
00:12:48.484 : :Chapter 4
00:20:39.788 : :Chapter 5
00:23:34.830 : :Chapter 6
00:28:19.998 : :Chapter 7
00:36:59.267 : :Chapter 8
00:45:52.116 : :Chapter 9
00:49:53.657 : :Chapter 10
00:57:10.844 : :Chapter 11
01:02:51.067 : :Chapter 12
01:13:41.250 : :Chapter 13

=================================[ KARiNA ]===================================

related torrents

Torrent name

health leech seeds Size
 

comments (0)

Main Menu