Action

Stop Loss TR EN AC3 DvDRip XviD TLine(3)

  • Download 5x Faster
  • Download torrent
  • Direct Download
  • Rate this torrent +  |  -
Stop Loss TR EN AC3 DvDRip XviD TLine(3)

Anonymous and free Direct Download 300GB+


Torrent info

Name:Stop Loss TR EN AC3 DvDRip XviD TLine(3)

Total Size: 1.38 GB

Magnet: Magnet Link

Seeds: 2

Leechers: 4

Stream: Watch Online @ Movie4u

Last Updated: 2010-08-07 08:57:54 (Update Now)

Torrent added: 2008-08-23 09:41:37



VPN For Torrents

Torrent Files List


sample (Size: 1.38 GB) (Files: 104)

 sample

  sample.avi

14.28 MB

 Stop Loss.TR-EN AC3.DvDRip.XviD-TLine.cd1

  TLine-sla.r00

14.31 MB

  TLine-sla.r01

14.31 MB

  TLine-sla.r02

14.31 MB

  TLine-sla.r03

14.31 MB

  TLine-sla.r04

14.31 MB

  TLine-sla.r05

14.31 MB

  TLine-sla.r06

14.31 MB

  TLine-sla.r07

14.31 MB

  TLine-sla.r08

14.31 MB

  TLine-sla.r09

14.31 MB

  TLine-sla.r10

14.31 MB

  TLine-sla.r11

14.31 MB

  TLine-sla.r12

14.31 MB

  TLine-sla.r13

14.31 MB

  TLine-sla.r14

14.31 MB

  TLine-sla.r15

14.31 MB

  TLine-sla.r16

14.31 MB

  TLine-sla.r17

14.31 MB

  TLine-sla.r18

14.31 MB

  TLine-sla.r19

14.31 MB

  TLine-sla.r20

14.31 MB

  TLine-sla.r21

14.31 MB

  TLine-sla.r22

14.31 MB

  TLine-sla.r23

14.31 MB

  TLine-sla.r24

14.31 MB

  TLine-sla.r25

14.31 MB

  TLine-sla.r26

14.31 MB

  TLine-sla.r27

14.31 MB

  TLine-sla.r28

14.31 MB

  TLine-sla.r29

14.31 MB

  TLine-sla.r30

14.31 MB

  TLine-sla.r31

14.31 MB

  TLine-sla.r32

14.31 MB

  TLine-sla.r33

14.31 MB

  TLine-sla.r34

14.31 MB

  TLine-sla.r35

14.31 MB

  TLine-sla.r36

14.31 MB

  TLine-sla.r37

14.31 MB

  TLine-sla.r38

14.31 MB

  TLine-sla.r39

14.31 MB

  TLine-sla.r40

14.31 MB

  TLine-sla.r41

14.31 MB

  TLine-sla.r42

14.31 MB

  TLine-sla.r43

14.31 MB

  TLine-sla.r44

14.31 MB

  TLine-sla.r45

14.31 MB

  TLine-sla.r46

14.31 MB

  TLine-sla.r47

13.12 MB

  TLine-sla.rar

14.31 MB

  TLine-sla.sfv

3.69 KB

 Stop Loss.TR-EN AC3.DvDRip.XviD-TLine.cd2

  TLine-sla.r00

14.31 MB

  TLine-sla.r01

14.31 MB

  TLine-sla.r02

14.31 MB

  TLine-sla.r03

14.31 MB

  TLine-sla.r04

14.31 MB

  TLine-sla.r05

14.31 MB

  TLine-sla.r06

14.31 MB

  TLine-sla.r07

14.31 MB

  TLine-sla.r08

14.31 MB

  TLine-sla.r09

14.31 MB

  TLine-sla.r10

14.31 MB

  TLine-sla.r11

14.31 MB

  TLine-sla.r12

14.31 MB

  TLine-sla.r13

14.31 MB

  TLine-sla.r14

14.31 MB

  TLine-sla.r15

14.31 MB

  TLine-sla.r16

14.31 MB

  TLine-sla.r17

14.31 MB

  TLine-sla.r18

14.31 MB

  TLine-sla.r19

14.31 MB

  TLine-sla.r20

14.31 MB

  TLine-sla.r21

14.31 MB

  TLine-sla.r22

14.31 MB

  TLine-sla.r23

14.31 MB

  TLine-sla.r24

14.31 MB

  TLine-sla.r25

14.31 MB

  TLine-sla.r26

14.31 MB

  TLine-sla.r27

14.31 MB

  TLine-sla.r28

14.31 MB

  TLine-sla.r29

14.31 MB

  TLine-sla.r30

14.31 MB

  TLine-sla.r31

14.31 MB

  TLine-sla.r32

14.31 MB

  TLine-sla.r33

14.31 MB

  TLine-sla.r34

14.31 MB

  TLine-sla.r35

14.31 MB

  TLine-sla.r36

14.31 MB

  TLine-sla.r37

14.31 MB

  TLine-sla.r38

14.31 MB

  TLine-sla.r39

14.31 MB

  TLine-sla.r40

14.31 MB

  TLine-sla.r41

14.31 MB

  TLine-sla.r42

14.31 MB

  TLine-sla.r43

14.31 MB

  TLine-sla.r44

14.31 MB

  TLine-sla.r45

14.31 MB

  TLine-sla.r46

14.31 MB

  TLine-sla.r47

14.31 MB

  TLine-sla.r48

154.52 KB

  TLine-sla.rar

14.31 MB

  TLine-sla.sfv

3.76 KB

 stop.cd1.txt

2.72 KB

 stop.cd2.txt

2.79 KB
 

Announce URL: http://mazysmadhouse.net/announce.php?passkey=tssespecialtorrentv1byxamsep2007

Torrent description

TLine

Stop Loss.TR-EN AC3.DvDRip.XviD-TLine
http://www.imdb.com/title/tt0489281/


Ripper : 17mayis
Format : AVI
Format/Info : Audio Video Interleave
File size : 700 MiB
Duration : 47mn 29s
Overall bit rate : 2060 Kbps
Writing application : VirtualDubMod 1.5.4.1 (build 2178/release)
Writing library : VirtualDubMod build 2178/release
IAS1 : English / English
IAS2 : Turkish / Turkish

Video
Format : MPEG-4 Visual
Format profile : Streaming [email protected]
Format settings, BVOP : Yes
Format settings, QPel : No
Format settings, GMC : No warppoints
Format settings, Matrix : Custom
Codec ID : XVID
Codec ID/Hint : XviD
Duration : 47mn 29s
Bit rate : 1155 Kbps
Width : 720 pixels
Height : 400 pixels
Display aspect ratio : 16/9
Frame rate : 25.000 fps
Resolution : 8 bits
Colorimetry : 4:2:0
Scan type : Progressive
Bits/(Pixel*Frame) : 0.160
Stream size : 392 MiB (56%)
Writing library : XviD 1.2.0.dev47 (UTC 2006-11-01)

Audio #1
Format : AC-3
Format/Info : Audio Coding 3
Codec ID : 2000
Duration : 47mn 29s
Bit rate mode : Constant
Bit rate : 448 Kbps
Channel(s) : 6 channels
Channel positions : Front: L C R, Rear: L R, LFE
Sampling rate : 48.0 KHz
Stream size : 152 MiB (22%)
Alignment : Aligned on interleaves
Interleave, duration : 96 ms (2.40 video frames)
Interleave, preload duration : 96 ms

Audio #2
Format : AC-3
Format/Info : Audio Coding 3
Codec ID : 2000
Duration : 47mn 29s
Bit rate mode : Constant
Bit rate : 448 Kbps
Channel(s) : 6 channels
Channel positions : Front: L C R, Rear: L R, LFE
Sampling rate : 48.0 KHz
Stream size : 152 MiB (22%)
Alignment : Aligned on interleaves
Interleave, duration : 96 ms (2.40 video frames)
Interleave, preload duration : 96 ms

related torrents

Torrent name

health leech seeds Size
 


comments (0)

Main Menu