Family

Alle lieben Raymond Staffel 9 DVDRip german Xvid

  • Download 5x Faster
  • Download torrent
  • Direct Download
  • Rate this torrent +  |  -
Alle lieben Raymond Staffel 9 DVDRip german Xvid

Anonymous and Free Direct Download


Torrent info

Name:Alle lieben Raymond Staffel 9 DVDRip german Xvid

Total Size: 3.97 GB

Magnet: Magnet Link

Seeds: 0

Leechers: 0

Stream: Watch Online @ Movie4u

Last Updated: 2015-07-18 13:02:03 (Update Now)

Torrent added: 2009-09-03 07:32:32



VPN For Torrents

Torrent Files List


everybodylovesraymondj0s42.jpg (Size: 3.97 GB) (Files: 18)

 everybodylovesraymondj0s42.jpg

40.22 KB

 nfo.nfo

2.98 KB

 S09E01 - Das neue Zuhause.avi

254.56 MB

 S09E02 - Zu früh gefreut.avi

255.78 MB

 S09E03 - Wut und Sex.avi

255.63 MB

 S09E04 - Die Sexbombe.avi

254.45 MB

 S09E05 - Der fiese Lehrer.avi

253.66 MB

 S09E06 - Die Männertherapie.avi

255.59 MB

 S09E07 - Sex mit dem Ex.avi

252.04 MB

 S09E08 - Seid fruchtbar und mehret euch.avi

255.53 MB

 S09E09 - Ein Date für Peter.avi

254.14 MB

 S09E10 - Eine Hand beißt die andere.avi

254.88 MB

 S09E11 - Das Fettnäpfchen.avi

253.30 MB

 S09E12 - Der dritte Fuß.avi

250.52 MB

 S09E13 - Die Schnattergans.avi

252.31 MB

 S09E14 - Wer fragt, verliert.avi

254.73 MB

 S09E15 - Viel Rauch um nichts.avi

253.20 MB

 S09E16 - Finale.avi

254.02 MB
 

tracker

leech seeds
 

Torrent description


Hier noch mal die Staffel 9 als DVD-rip,führer die Leute die es als DVD-rip haben möchten.

Sportreporter Raymond Barone alias Ray Romano weiß, was es heißt, als Oberhaupt in einer chaotischen Familie der Neunziger
zu bestehen. Da sind zum einen seine Frau und genervte Mutter Debra alias Patricia Heaton, seine 5jährige Tochter Ally und
die 20 Monate alten Zwillingssöhne Michael und Geoffrey. Familienidylle pur, gäb’s da nicht seine neugierige Verwandtschaft,
die sich ständig in alles einmischt…
mit Ray Romano (Raymond “Ray” Barone), Patricia Heaton (Debra Barone), Doris Roberts (Marie Barone), Brad Garrett
(Robert Barone), Peter Boyle (Frank Barone), Madylin Sweeten (Ally Barone), Sawyer Sweeten (Geoffrey Barone), Sullivan
Sweeten (Michael Barone)

9. Staffel
195. Das neue Zuhause
196. Zu früh gefreut
197. Wut und Sex
198. Die Sexbombe
199. Der fiese Lehrer
200. Die Männertherapie
201. Sex mit dem Ex
202. Seid fruchtbar und mehret euch
203. Ein Date für Peter
204. Eine Hand beißt die andere
205. Das Fettnäpfchen
206. Der dritte Fuß
207. Die Schnattergans
208. Wer fragt, verliert
209. Viel Rauch um nichts
210. Finale

Format : AVI
Format/Info : Audio Video Interleave
Dateigröße : 255 MiB
Duration : 22min
Gesamte Bitrate : 1586 Kbps
Verwendetes Programm : VirtualDubMod 1.5.10.2 (build 2540/release)
verwendete Encoder-Bibliothek : VirtualDubMod build 2540/release

Format : MPEG-4 Visual
Format profile : [email protected]
Format settings, BVOP : Nein
Format settings, QPel : Nein
Format settings, GMC : No warppoints
Format settings, Matrix : Default
Codec ID : DX50
Codec ID/Hint : DivX 5
Duration : 22min
Bitrate : 1187 Kbps
Breite : 640 Pixel
Höhe : 352 Pixel
Bildseitenverhältnis : 16/9
Bildwiederholungsrate : 25.000 FPS
Auflösung : 8 bits
Colorimetry : 4:2:0
Scan type : Progressive
Bits/(Pixel*Frame) : 0.211
Stream size : 191 MiB (75%)
verwendete Encoder-Bibliothek : Lavc51.40.4

Format : MPEG Audio
Format version : Version 1
Format profile : Layer 3
Codec ID : 55
Codec ID/Hint : MP3
Duration : 22min
Bitraten-Modus : Constant
Bitrate : 192 Kbps
Kanäle : 2 Kanäle
Samplingrate : 48.0 KHz
Auflösung : 16 bits
Stream size : 30.8 MiB (12%)
Alignment : Aligned on interleaves
Interleave, duration : 40 ms (1.00 video frame)
Interleave, preload duration : 504 ms

related torrents

Torrent name

health leech seeds Size
 


comments (0)

Main Menu