DVD / Film Extras

Hollywood MOVIESSSSSS[ronakt] [ronaktwl][H33T]

  • Download 5x Faster
  • Download torrent
  • Direct Download
  • Rate this torrent +  |  -
Hollywood MOVIESSSSSS[ronakt] [ronaktwl][H33T]

Anonymous and Free Direct Download 300GB+


Torrent info

Name:Hollywood MOVIESSSSSS[ronakt] [ronaktwl][H33T]

Total Size: 11.29 GB

Magnet: Magnet Link

Seeds: 0

Leechers: 0

Stream: Watch Online @ Movie4u

Last Updated: 2011-11-10 11:13:59 (Update Now)

Torrent added: 2009-09-03 03:17:43



VPN For Torrents

Torrent Files List


17 Again (2009) DVDRip-rONAK [RONAKT] [H33T] (Size: 11.29 GB) (Files: 69)

 17 Again (2009) DVDRip-rONAK [RONAKT] [H33T]

  17 Again (2009) DVDRip-MAXSPEED www.piratewarez.my1.ru.avi

701.98 MB

  17 Again (2009) DVDRip-MAXSPEED.nfo

2.40 KB

  17 Again(2009) [H33t] .nfo

7.93 KB

  screencaps.jpg

204.67 KB

  Torrent downloaded from Demonoid.com.txt

0.05 KB

  tracked_by_h33t_com.txt

0.02 KB

 300[2006]DvDrip[Eng]-aXXo [RONAKT] [H33T]

  300-aXXo.nfo

7.87 KB

  300[2006]DvDrip[Eng]-aXXo.avi

701.05 MB

  IMPORTANT.Read carefully before enjoy this movie.txt

0.65 KB

 American Pie 2[RONAKT] [H33T]

  American Pie 2.mp4

336.48 MB

  Downloaded from Piratewarez.my1.ru.txt

0.02 KB

  Torrent downloaded from Demonoid.com.txt

0.05 KB

  tracked_by_h33t_com.txt

0.02 KB

 Angels & Demons (2009) DVDRip XviD-[RONAKT] [H33T]

  Angels & Demons (2009) DVDRip XviD-MAXSPEED www.torentz.3xforum.ro.avi

701.97 MB

  Angels & Demons (2009) DVDRip XviD-MAXSPEED.nfo

2.35 KB

  screencaps.jpg

134.02 KB

  Torrent downloaded from Demonoid.com.txt

0.05 KB

  tracked_by_h33t_com.txt

0.02 KB

 Bolt.DVDSCR.[RONAKT] [H33T]

  Bolt.DVDSCR.wael.ALZ.rmvb

244.44 MB

  Downloaded from Piratewarez.my1.ru.txt

0.02 KB

  Torrent downloaded from Demonoid.com.txt

0.05 KB

  tracked_by_h33t_com.txt

0.02 KB

 Dragonball Evolution 2009[RONAKT] [H33T]

  coa-dragonevo-xvid.avi

700.33 MB

  Downloaded from Piratewarez.my1.ru.txt

0.02 KB

  Torrent downloaded from Demonoid.com.txt

0.05 KB

  tracked_by_h33t_com.txt

0.02 KB

 Harry Potter 6 Half Blood Prince (2009) TS XVID-[RONAKT] [H33T]

  Harry Potter 6 Half Blood Prince (2009) TS XVID-RONAKT [H33T].avi

1.38 GB

  Harry Potter 6 Half Blood Prince (2009) TS XVID-ronakt [H33T].nfo

3.16 KB

  SNAPSHOT.jpg

126.40 KB

  Torrent downloaded from Demonoid.com.txt

0.05 KB

  tracked_by_h33t_com.txt

0.02 KB

 Indiana.Jones.And.The.Kingdom.Of.The.Crystal.Skull[2008]DvDrip-ronakt

  Demonoid.com.txt

0.04 KB

  indiana.jones.and.the.kingdom.of.the.crystal.skull-ronakt.nfo

7.79 KB

  Indiana.Jones.And.The.Kingdom.Of.The.Crystal.Skull[2008]DvDrip-ronakt.avi

800.32 MB

 Madagascar-Escape.2.Africa[2008]DvDrip-aXXo[RONAKT] [H33T]

  Demonoid.com.txt

0.04 KB

  Downloaded from Piratewarez.my1.ru.txt

0.02 KB

  Madagascar-Escape.2.Africa[2008]DvDrip-aXXo.avi

700.85 MB

  madagascar-scape.2.africa-aXXo.nfo

8.12 KB

  Torrent downloaded from Demonoid.com.txt

0.05 KB

  tracked_by_h33t_com.txt

0.02 KB

 Race To Witch Mountain (2009) DVDRip-[RONAKT] [H33T]

  Race To Witch Mountain (2009) DVDRip-ronakt.avi

701.24 MB

  Torrent downloaded from Demonoid.com.txt

0.05 KB

  tracked_by_h33t_com.txt

0.02 KB

 Role.Models[2008][Unrated.Edition]DvDrip-ronakt

  Demonoid..com.txt

0.05 KB

  Demonoid.com.txt

0.04 KB

  Role.Models[2008][Unrated.Edition]DvDrip-ronakt.avi

701.46 MB

 Surfer.Dude.[RONAKT] [H33T]

  Downloaded from Piratewarez.my1.ru.txt

0.02 KB

  Surfer.Dude.wael.ALZ.rmvb

306.69 MB

  Torrent downloaded from Demonoid.com.txt

0.05 KB

  tracked_by_h33t_com.txt

0.02 KB

 Sydney.White[RONAKT] [H33T]

  Downloaded from Piratewarez.my1.ru.txt

0.02 KB

  Sydney.White.mkv

299.25 MB

  Torrent downloaded from Demonoid.com.txt

0.05 KB

  tracked_by_h33t_com.txt

0.02 KB

 The.Alphabet.Killer.[RONAKT] [H33T]

  Downloaded from Piratewarez.my1.ru.txt

0.02 KB

  The.Alphabet.Killer.wael.ALZ.rmvb

249.85 MB

  Torrent downloaded from Demonoid.com.txt

0.05 KB

  tracked_by_h33t_com.txt

0.02 KB

 The.Curious.Case.of.Benjamin.Button.DVDSCR.ronakto-DEViSE

  Demonoid..com.txt

0.05 KB

  Demonoid.com.txt

0.04 KB

  The.Curious.Case.of.Benjamin.Button.DVDSCR.ronakto-DEViSE.avi

1.37 GB

  The.Curious.Case.of.Benjamin.Button.DVDSCR.ronakto-DEViSE.jpg

86.30 KB

 Vicky.Christina.Barcelona.Scr.[RONAKT] [H33T]

  Downloaded from Piratewarez.my1.ru.txt

0.02 KB

  Torrent downloaded from Demonoid.com.txt

0.05 KB

  tracked_by_h33t_com.txt

0.02 KB

  Vicky.Christina.Barcelona.Scr.wael.ALZ.rmvb

246.99 MB

 Watchmen.READNFO.TS.XviD.DEViSE

  Subs

   devise-watchmxv.srt

2.53 KB

  devise-watchmxv.avi

1.32 GB

  Torrent downloaded from Demonoid.com.txt

0.05 KB
 

Announce URL: http://tracker.publicbt.com/announce

Torrent description

[*][color=red]17 Again (2009) DVDRip-rONAK [RONAKT] [H33T][/color]
[quote]Format : AVI
Format/Info : Audio Video Interleave
File size : 702 MiB
Duration : 1h 40mn
Overall bit rate : 974 Kbps
Writing application : Noir's Hyper HD Xvid
Writing library : VirtualDub build 31953/release
Original source form : Noir's Shit
Copyright : By Noir

Video
Format : MPEG-4 Visual
Format profile : Streaming [email protected]
Format settings, BVOP : Yes
Format settings, QPel : No
Format settings, GMC : No warppoints
Format settings, Matrix : Default (H.263)
Muxing mode : Packed bitstream
Codec ID : XVID
Codec ID/Hint : XviD
Duration : 1h 40mn
Bit rate : 860 Kbps
Width : 672 pixels
Height : 288 pixels
Display aspect ratio : 2.35
Frame rate : 23.976 fps
Resolution : 24 bits
Colorimetry : 4:2:0
Scan type : Progressive
Bits/(Pixel*Frame) : 0.185
Stream size : 620 MiB (88%)
Writing library : XviD 1.2.1 (UTC 2008-12-04)

Audio
Format : MPEG Audio
Format version : Version 1
Format profile : Layer 3
Codec ID : 55
Codec ID/Hint : MP3
Duration : 1h 40mn
Bit rate mode : Variable
Bit rate : 101 Kbps
Channel(s) : 2 channels
Sampling rate : 44.1 KHz
Resolution : 16 bits
Stream size : 72.8 MiB (10%)
Alignment : Aligned on interleaves
Interleave, duration : 26 ms (0.63 video frame)
Interleave, preload duration : 394 ms[/quote]


[color=red]300[2006]DvDrip[Eng]-aXXo [RONAKT] [H33T][/color]
Hollywood MOVIESSSSSS[ronakt] [ronaktwl][H33T] preview 0

[quote]Format : AVI
Format/Info : Audio Video Interleave
File size : 701 MiB
Duration : 1h 56mn
Overall bit rate : 841 Kbps
Writing application : VirtualDubMod 1.5.10.1 (build 2366/release)
Writing library : VirtualDubMod build 2366/release

Video
Format : MPEG-4 Visual
Format profile : Streaming [email protected]
Format settings, BVOP : Yes
Format settings, QPel : No
Format settings, GMC : No warppoints
Format settings, Matrix : Default (H.263)
Codec ID : DX50
Codec ID/Hint : DivX 5
Duration : 1h 56mn
Bit rate : 719 Kbps
Width : 620 pixels
Height : 256 pixels
Display aspect ratio : 2.422
Frame rate : 23.976 fps
Resolution : 24 bits
Colorimetry : 4:2:0
Scan type : Progressive
Bits/(Pixel*Frame) : 0.189
Stream size : 600 MiB (86%)
Writing library : XviD 1.0.3 (UTC 2004-12-20)

Audio
Format : MPEG Audio
Format version : Version 1
Format profile : Layer 3
Codec ID : 55
Codec ID/Hint : MP3
Duration : 1h 56mn
Bit rate mode : Constant
Bit rate : 112 Kbps
Channel(s) : 2 channels
Sampling rate : 48.0 KHz
Resolution : 16 bits
Stream size : 93.4 MiB (13%)
Alignment : Aligned on interleaves
Interleave, duration : 42 ms (1.00 video frame)
Interleave, preload duration : 504 ms
[/quote]


[color=red]American Pie 2[RONAKT] [H33T][/color]
Hollywood MOVIESSSSSS[ronakt] [ronaktwl][H33T] preview 11" border="0" alt="Hollywood MOVIESSSSSS[ronakt] [ronaktwl][H33T] preview 1"/>

[quote]Format : MPEG-4
Format profile : Base Media
Codec ID : isom
File size : 336 MiB
Duration : 1h 43mn
Overall bit rate : 455 Kbps
Movie name : American Pie 2 [Unrated] [DVDrip] -ReDeemer
Encoded date : UTC 2007-12-30 13:52:50
Tagged date : UTC 2007-12-30 13:52:50
Writing application : Lavf51.12.1

Video
ID : 1
Format : AVC
Format/Info : Advanced Video Codec
Format profile : [email protected]
Format settings, CABAC : Yes
Format settings, ReFrames : 1 frame
Codec ID : avc1
Codec ID/Info : Advanced Video Coding
Duration : 1h 43mn
Bit rate mode : Variable
Bit rate : 387 Kbps
Width : 320 pixels
Height : 240 pixels
Display aspect ratio : 4/3
Frame rate mode : Constant
Frame rate : 23.976 fps
Resolution : 24 bits
Colorimetry : 4:2:0
Scan type : Progressive
Bits/(Pixel*Frame) : 0.210
Stream size : 286 MiB (85%)
Encoded date : UTC 2007-12-30 13:52:50
Tagged date : UTC 2007-12-30 13:52:50

Audio
ID : 2
Format : AAC
Format/Info : Advanced Audio Codec
Format version : Version 4
Format profile : LC
Format settings, SBR : No
Codec ID : 40
Duration : 1h 43mn
Bit rate mode : Variable
Bit rate : 64.0 Kbps
Channel(s) : 2 channels
Channel positions : L R
Sampling rate : 44.1 KHz
Resolution : 16 bits
Stream size : 47.3 MiB (14%)
Encoded date : UTC 2007-12-30 13:52:50
Tagged date : UTC 2007-12-30 13:52:50
[/quote]



[color=red]Angels & Demons (2009) DVDRip XviD-[RONAKT] [H33T][/color]
Hollywood MOVIESSSSSS[ronakt] [ronaktwl][H33T] preview 2

[quote]Format : AVI
Format/Info : Audio Video Interleave
File size : 702 MiB
Duration : 2h 12mn
Overall bit rate : 742 Kbps
Writing application : Noir's Hyper HD Xvid
Writing library : VirtualDub build 31953/release
Original source form : Noir's Shit
Copyright : By Noir

Video
Format : MPEG-4 Visual
Format profile : Streaming [email protected]
Format settings, BVOP : Yes
Format settings, QPel : No
Format settings, GMC : No warppoints
Format settings, Matrix : Default (H.263)
Muxing mode : Packed bitstream
Codec ID : XVID
Codec ID/Hint : XviD
Duration : 2h 12mn
Bit rate : 630 Kbps
Width : 640 pixels
Height : 272 pixels
Display aspect ratio : 2.35
Frame rate : 25.000 fps
Resolution : 24 bits
Colorimetry : 4:2:0
Scan type : Progressive
Bits/(Pixel*Frame) : 0.145
Stream size : 596 MiB (85%)
Writing library : XviD 1.2.1 (UTC 2008-12-04)

Audio
Format : MPEG Audio
Format version : Version 1
Format profile : Layer 3
Codec ID : 55
Codec ID/Hint : MP3
Duration : 2h 12mn
Bit rate mode : Variable
Bit rate : 99.7 Kbps
Channel(s) : 2 channels
Sampling rate : 44.1 KHz
Resolution : 16 bits
Stream size : 94.3 MiB (13%)
Alignment : Aligned on interleaves
Interleave, duration : 26 ms (0.65 video frame)
Interleave, preload duration : 393 ms

[/quote]


[color=red]Bolt.DVDSCR.[RONAKT] [H33T][/color]
Hollywood MOVIESSSSSS[ronakt] [ronaktwl][H33T] preview 3

[quote]Format : RealMedia
File size : 244 MiB
Duration : 1h 36mn
Overall bit rate : 348 Kbps
Performer : Easy Real Converter
Copyright : http://www.magicutils.com

Video
ID : 0
Format : RealVideo 4
Codec ID : RV40
Codec ID/Info : Based on AVC (H.264), Real Player 9
Duration : 1h 36mn
Bit rate : 284 Kbps
Width : 640 pixels
Height : 336 pixels
Display aspect ratio : 1.905
Frame rate : 23.000 fps
Resolution : 12 bits
Bits/(Pixel*Frame) : 0.057
Stream size : 195 MiB (80%)

Audio
ID : 1
Format : Cooker
Codec ID : cook
Codec ID/Info : Based on G.722.1, Real Player 6
Duration : 1h 36mn
Bit rate : 64.1 Kbps
Channel(s) : 2 channels
Sampling rate : 44.1 KHz
Resolution : 16 bits
Stream size : 44.2 MiB (18%)
[/quote]



[color=red]Dragonball Evolution 2009[RONAKT] [H33T][/color]
Hollywood MOVIESSSSSS[ronakt] [ronaktwl][H33T] preview 4

[quote]Format : AVI
Format/Info : Audio Video Interleave
File size : 700 MiB
Duration : 1h 21mn
Overall bit rate : 1 195 Kbps
Writing application : VirtualDubMod 1.5.10.2 (build 2540/release)
Writing library : VirtualDubMod build 2540/release

Video
Format : MPEG-4 Visual
Format profile : [email protected]
Format settings, BVOP : Yes
Format settings, QPel : No
Format settings, GMC : No warppoints
Format settings, Matrix : Default (H.263)
Codec ID : XVID
Codec ID/Hint : XviD
Duration : 1h 21mn
Bit rate : 1 054 Kbps
Width : 640 pixels
Height : 272 pixels
Display aspect ratio : 2.35
Frame rate : 25.000 fps
Resolution : 24 bits
Colorimetry : 4:2:0
Scan type : Progressive
Bits/(Pixel*Frame) : 0.242
Stream size : 618 MiB (88%)
Writing library : XviD 1.0.1 (UTC 2004-06-05)

Audio
Format : MPEG Audio
Format version : Version 1
Format profile : Layer 3
Codec ID : 55
Codec ID/Hint : MP3
Duration : 1h 21mn
Bit rate mode : Variable
Bit rate : 128 Kbps
Channel(s) : 2 channels
Sampling rate : 48.0 KHz
Resolution : 16 bits
Stream size : 74.8 MiB (11%)
Alignment : Aligned on interleaves
Interleave, duration : 24 ms (0.60 video frame)
Interleave, preload duration : 289 ms

[/quote]



[color=red]Harry Potter 6 Half Blood Prince (2009) TS XVID-[RONAKT] [H33T][/color]
Hollywood MOVIESSSSSS[ronakt] [ronaktwl][H33T] preview 5

[quote]Format : AVI
Format/Info : Audio Video Interleave
File size : 1.38 GiB
Duration : 2h 18mn
Overall bit rate : 1 424 Kbps
Writing application : VirtualDubMod 1.5.10.2 (build 2540/release)
Writing library : VirtualDubMod build 2540/release

Video
Format : MPEG-4 Visual
Format profile : Streaming [email protected]
Format settings, BVOP : Yes
Format settings, QPel : No
Format settings, GMC : No warppoints
Format settings, Matrix : Default (H.263)
Muxing mode : Packed bitstream
Codec ID : XVID
Codec ID/Hint : XviD
Duration : 2h 18mn
Bit rate : 1 286 Kbps
Width : 720 pixels
Height : 298 pixels
Display aspect ratio : 2.416
Frame rate : 25.000 fps
Resolution : 24 bits
Colorimetry : 4:2:0
Scan type : Progressive
Bits/(Pixel*Frame) : 0.240
Stream size : 1.24 GiB (90%)
Writing library : XviD 1.2.1 (UTC 2008-12-04)

Audio
Format : MPEG Audio
Format version : Version 1
Format profile : Layer 2
Codec ID : 50
Codec ID/Hint : MP1
Duration : 2h 18mn
Bit rate mode : Constant
Bit rate : 128 Kbps
Channel(s) : 2 channels
Sampling rate : 44.1 KHz
Resolution : 16 bits
Stream size : 127 MiB (9%)
Alignment : Split accross interleaves
Interleave, duration : 40 ms (1.00 video frame)
Interleave, preload duration : 500 ms

[/quote]



[color=red]Indiana.Jones.And.The.Kingdom.Of.The.Crystal.Skull[2008]DvDrip-ronakt[/color]
Hollywood MOVIESSSSSS[ronakt] [ronaktwl][H33T] preview 6

[quote]Format : AVI
Format/Info : Audio Video Interleave
File size : 701 MiB
Duration : 1h 29mn
Overall bit rate : 1 096 Kbps
Writing application : VirtualDubMod 1.5.10.1 (build 2366/release)
Writing library : VirtualDubMod build 2366/release

Video
Format : MPEG-4 Visual
Format profile : Streaming [email protected]
Format settings, BVOP : Yes
Format settings, QPel : No
Format settings, GMC : No warppoints
Format settings, Matrix : Default (H.263)
Codec ID : DX50
Codec ID/Hint : DivX 5
Duration : 1h 29mn
Bit rate : 959 Kbps
Width : 660 pixels
Height : 362 pixels
Display aspect ratio : 16/9
Frame rate : 23.976 fps
Resolution : 24 bits
Colorimetry : 4:2:0
Scan type : Progressive
Bits/(Pixel*Frame) : 0.167
Stream size : 613 MiB (87%)
Writing library : XviD 1.0.3 (UTC 2004-12-20)

Audio
Format : MPEG Audio
Format version : Version 1
Format profile : Layer 3
Codec ID : 55
Codec ID/Hint : MP3
Duration : 1h 29mn
Bit rate mode : Constant
Bit rate : 128 Kbps
Channel(s) : 2 channels
Sampling rate : 48.0 KHz
Resolution : 16 bits
Stream size : 81.8 MiB (12%)
Alignment : Aligned on interleaves
Interleave, duration : 42 ms (1.00 video frame)
Interleave, preload duration : 504 ms
[/quote]



[color=red]Madagascar-Escape.2.Africa[2008]DvDrip-aXXo[RONAKT] [H33T][/color]
Hollywood MOVIESSSSSS[ronakt] [ronaktwl][H33T] preview 7

[quote]Format : AVI
Format/Info : Audio Video Interleave
File size : 701 MiB
Duration : 1h 29mn
Overall bit rate : 1 096 Kbps
Writing application : VirtualDubMod 1.5.10.1 (build 2366/release)
Writing library : VirtualDubMod build 2366/release

Video
Format : MPEG-4 Visual
Format profile : Streaming [email protected]
Format settings, BVOP : Yes
Format settings, QPel : No
Format settings, GMC : No warppoints
Format settings, Matrix : Default (H.263)
Codec ID : DX50
Codec ID/Hint : DivX 5
Duration : 1h 29mn
Bit rate : 959 Kbps
Width : 660 pixels
Height : 362 pixels
Display aspect ratio : 16/9
Frame rate : 23.976 fps
Resolution : 24 bits
Colorimetry : 4:2:0
Scan type : Progressive
Bits/(Pixel*Frame) : 0.167
Stream size : 613 MiB (87%)
Writing library : XviD 1.0.3 (UTC 2004-12-20)

Audio
Format : MPEG Audio
Format version : Version 1
Format profile : Layer 3
Codec ID : 55
Codec ID/Hint : MP3
Duration : 1h 29mn
Bit rate mode : Constant
Bit rate : 128 Kbps
Channel(s) : 2 channels
Sampling rate : 48.0 KHz
Resolution : 16 bits
Stream size : 81.8 MiB (12%)
Alignment : Aligned on interleaves
Interleave, duration : 42 ms (1.00 video frame)
Interleave, preload duration : 504 ms

[/quote]



[color=red]Race To Witch Mountain (2009) DVDRip-[RONAKT] [H33T][/color]
Hollywood MOVIESSSSSS[ronakt] [ronaktwl][H33T] preview 8

[quote]Format : AVI
Format/Info : Audio Video Interleave
File size : 701 MiB
Duration : 1h 38mn
Overall bit rate : 997 Kbps
Writing application : Nandub v1.0rc2
Writing library : Nandub build 1852/release

Video
Format : MPEG-4 Visual
Format profile : Streaming [email protected]
Format settings, BVOP : Yes
Format settings, QPel : No
Format settings, GMC : No warppoints
Format settings, Matrix : Default (H.263)
Codec ID : XVID
Codec ID/Hint : XviD
Duration : 1h 38mn
Bit rate : 824 Kbps
Width : 624 pixels
Height : 256 pixels
Display aspect ratio : 2.438
Frame rate : 23.976 fps
Resolution : 24 bits
Colorimetry : 4:2:0
Scan type : Progressive
Bits/(Pixel*Frame) : 0.215
Stream size : 579 MiB (83%)
Writing library : XviD 1.1.2 (UTC 2006-11-01)

Audio
Format : MPEG Audio
Format version : Version 1
Format profile : Layer 3
Codec ID : 55
Codec ID/Hint : MP3
Duration : 1h 38mn
Bit rate mode : Variable
Bit rate : 161 Kbps
Nominal bit rate : 160 Kbps
Channel(s) : 2 channels
Sampling rate : 48.0 KHz
Resolution : 16 bits
Video delay : 1s 584ms
Stream size : 113 MiB (16%)
Alignment : Split accross interleaves
Interleave, duration : 24 ms (0.58 video frame)
Interleave, preload duration : 1145 ms
Writing library : LAME3.90.
Encoding settings : -m j -V 4 -q 2 -lowpass 18 --abr 160

[/quote]



[color=red]Role.Models[2008][Unrated.Edition]DvDrip-ronakt[/color]
Hollywood MOVIESSSSSS[ronakt] [ronaktwl][H33T] preview 9

[quote]Format : AVI
Format/Info : Audio Video Interleave
File size : 701 MiB
Duration : 1h 41mn
Overall bit rate : 970 Kbps
Writing application : VirtualDubMod 1.5.10.1 (build 2366/release)
Writing library : VirtualDubMod build 2366/release

Video
Format : MPEG-4 Visual
Format profile : Streaming [email protected]
Format settings, BVOP : Yes
Format settings, QPel : No
Format settings, GMC : No warppoints
Format settings, Matrix : Default (H.263)
Codec ID : DX50
Codec ID/Hint : DivX 5
Duration : 1h 41mn
Bit rate : 848 Kbps
Width : 624 pixels
Height : 328 pixels
Display aspect ratio : 1.902
Frame rate : 23.976 fps
Resolution : 24 bits
Colorimetry : 4:2:0
Scan type : Progressive
Bits/(Pixel*Frame) : 0.173
Stream size : 614 MiB (87%)
Writing library : XviD 1.0.3 (UTC 2004-12-20)

Audio
Format : MPEG Audio
Format version : Version 1
Format profile : Layer 3
Codec ID : 55
Codec ID/Hint : MP3
Duration : 1h 41mn
Bit rate mode : Constant
Bit rate : 112 Kbps
Channel(s) : 2 channels
Sampling rate : 48.0 KHz
Resolution : 16 bits
Stream size : 81.0 MiB (12%)
Alignment : Aligned on interleaves
Interleave, duration : 42 ms (1.00 video frame)
Interleave, preload duration : 504 ms

[/quote]



[color=red]Surfer.Dude.[RONAKT] [H33T][/color]
Hollywood MOVIESSSSSS[ronakt] [ronaktwl][H33T] preview 10

[quote]Format : RealMedia
File size : 307 MiB
Duration : 1h 25mn
Overall bit rate : 494 Kbps
Performer : Easy Real Converter
Copyright : http://www.magicutils.com

Video
ID : 0
Format : RealVideo 4
Codec ID : RV40
Codec ID/Info : Based on AVC (H.264), Real Player 9
Duration : 1h 25mn
Bit rate : 430 Kbps
Width : 640 pixels
Height : 480 pixels
Display aspect ratio : 4/3
Frame rate : 23.000 fps
Resolution : 12 bits
Bits/(Pixel*Frame) : 0.061
Stream size : 263 MiB (86%)

Audio
ID : 1
Format : Cooker
Codec ID : cook
Codec ID/Info : Based on G.722.1, Real Player 6
Duration : 1h 25mn
Bit rate : 64.1 Kbps
Channel(s) : 2 channels
Sampling rate : 44.1 KHz
Resolution : 16 bits
Stream size : 39.2 MiB (13%)

[/quote]



Sydney.White[RONAKT] [H33T]
Hollywood MOVIESSSSSS[ronakt] [ronaktwl][H33T] preview 11" border="0" alt="Hollywood MOVIESSSSSS[ronakt] [ronaktwl][H33T] preview 1"/>

[quote]Format : Matroska
File size : 299 MiB
Duration : 1h 45mn
Overall bit rate : 395 Kbps
Encoded date : UTC 2008-06-11 04:38:28
Writing application : mkvmerge v2.2.0 ('Turn It On Again') built on Mar 4 2008 12:58:26
Writing library : libebml v0.7.7 + libmatroska v0.8.1

Video
ID : 3
Format : AVC
Format/Info : Advanced Video Codec
Format profile : [email protected]
Format settings, CABAC : Yes
Format settings, ReFrames : 8 frames
Muxing mode : Container [email protected]
Codec ID : V_MPEG4/ISO/AVC
Duration : 1h 45mn
Nominal bit rate : 366 Kbps
Width : 640 pixels
Height : 272 pixels
Display aspect ratio : 2.35
Frame rate : 23.976 fps
Resolution : 24 bits
Colorimetry : 4:2:0
Scan type : Progressive
Bits/(Pixel*Frame) : 0.088
Writing library : x264 core 57 svn-714
Encoding settings : cabac=1 / ref=5 / deblock=1:-2:-1 / analyse=0x3:0x113 / me=umh / subme=6 / brdo=1 / mixed_ref=1 / me_range=16 / chroma_me=1 / trellis=1 / 8x8dct=1 / cqm=0 / deadzone=21,11 / chroma_qp_offset=0 / threads=3 / nr=0 / decimate=1 / mbaff=0 / bframes=16 / b_pyramid=1 / b_adapt=1 / b_bias=0 / direct=3 / wpredb=1 / bime=1 / keyint=250 / keyint_min=25 / scenecut=40(pre) / rc=2pass / bitrate=366 / ratetol=1.0 / rceq='blurCplx^(1-qComp)' / qcomp=0.60 / qpmin=10 / qpmax=51 / qpstep=4 / cplxblur=20.0 / qblur=0.5 / ip_ratio=1.40 / pb_ratio=1.30

Audio
ID : 1
Format : AAC
Format/Info : Advanced Audio Codec
Format version : Version 4
Format profile : LC
Format settings, SBR : Yes
Format settings, PS : No
Codec ID : A_AAC
Duration : 1h 45mn
Channel(s) : 2 channels
Channel positions : L R
Sampling rate : 48.0 KHz
Resolution : 16 bits

Text
ID : 2
Format : UTF-8
Codec ID : S_TEXT/UTF8
Codec ID/Info : UTF-8 Plain Text

[/quote]



[color=red]The.Alphabet.Killer.[RONAKT] [H33T][/color]
Hollywood MOVIESSSSSS[ronakt] [ronaktwl][H33T] preview 13" border="0" alt="Hollywood MOVIESSSSSS[ronakt] [ronaktwl][H33T] preview 12"/>

[quote]Format : RealMedia
File size : 250 MiB
Duration : 1h 38mn
Overall bit rate : 349 Kbps
Performer : Easy Real Converter
Copyright : http://www.magicutils.com

Video
ID : 0
Format : RealVideo 4
Codec ID : RV40
Codec ID/Info : Based on AVC (H.264), Real Player 9
Duration : 1h 38mn
Bit rate : 285 Kbps
Width : 640 pixels
Height : 480 pixels
Display aspect ratio : 4/3
Frame rate : 23.000 fps
Resolution : 12 bits
Bits/(Pixel*Frame) : 0.040
Stream size : 200 MiB (80%)

Audio
ID : 1
Format : Cooker
Codec ID : cook
Codec ID/Info : Based on G.722.1, Real Player 6
Duration : 1h 38mn
Bit rate : 64.1 Kbps
Channel(s) : 2 channels[/quote]



[color=red]The.Curious.Case.of.Benjamin.Button.DVDSCR.ronakto-DEViSE[/color]
Hollywood MOVIESSSSSS[ronakt] [ronaktwl][H33T] preview 13" border="0" alt="Hollywood MOVIESSSSSS[ronakt] [ronaktwl][H33T] preview 12"/>

[quote]Format : AVI
Format/Info : Audio Video Interleave
File size : 1.37 GiB
Duration : 2h 43mn
Overall bit rate : 1 202 Kbps
Writing application : VirtualDubMod 1.5.10.2 (build 2540/release)
Writing library : VirtualDub build 29958/release

Video
Format : MPEG-4 Visual
Format profile : [email protected]
Format settings, BVOP : Yes
Format settings, QPel : No
Format settings, GMC : No warppoints
Format settings, Matrix : Default (MPEG)
Muxing mode : Packed bitstream
Codec ID : XVID
Codec ID/Hint : XviD
Duration : 2h 43mn
Bit rate : 1 064 Kbps
Width : 704 pixels
Height : 288 pixels
Display aspect ratio : 2.444
Frame rate : 23.976 fps
Resolution : 24 bits
Colorimetry : 4:2:0
Scan type : Progressive
Bits/(Pixel*Frame) : 0.219
Stream size : 1.21 GiB (89%)
Writing library : XviD 1.0.1 (UTC 2004-06-05)

Audio
Format : MPEG Audio
Format version : Version 1
Format profile : Layer 3
Codec ID : 55
Codec ID/Hint : MP3
Duration : 2h 43mn
Bit rate mode : Constant
Bit rate : 128 Kbps
Channel(s) : 2 channels
Sampling rate : 48.0 KHz
Resolution : 16 bits
Video delay : 7s 500ms
Stream size : 150 MiB (11%)
Alignment : Split accross interleaves
Interleave, duration : 42 ms (1.00 video frame)
Interleave, preload duration : 500 ms

[/quote]



[color=red]Vicky.Christina.Barcelona.Scr.[RONAKT] [H33T][/color]


[quote]Format : RealMedia
File size : 247 MiB
Duration : 1h 36mn
Overall bit rate : 350 Kbps
Performer : Easy Real Converter
Copyright : http://www.magicutils.com

Video
ID : 0
Format : RealVideo 4
Codec ID : RV40
Codec ID/Info : Based on AVC (H.264), Real Player 9
Duration : 1h 36mn
Bit rate : 286 Kbps
Width : 624 pixels
Height : 468 pixels
Display aspect ratio : 4/3
Frame rate : 23.000 fps
Resolution : 12 bits
Bits/(Pixel*Frame) : 0.043
Stream size : 198 MiB (80%)

Audio
ID : 1
Format : Cooker
Codec ID : cook
Codec ID/Info : Based on G.722.1, Real Player 6
Duration : 1h 36mn
Bit rate : 64.1 Kbps
Channel(s) : 2 channels
Sampling rate : 44.1 KHz
Resolution : 16 bits
Stream size : 44.3 MiB (18%)

[/quote]



[color=red]Watchmen.READNFO.TS.XviD.DEViSE[/color]
Hollywood MOVIESSSSSS[ronakt] [ronaktwl][H33T] preview 14

[quote]Format : AVI
Format/Info : Audio Video Interleave
File size : 1.32 GiB
Duration : 2h 33mn
Overall bit rate : 1 237 Kbps

Video
Format : MPEG-4 Visual
Format profile : Streaming [email protected]
Format settings, BVOP : Yes
Format settings, QPel : No
Format settings, GMC : No warppoints
Format settings, Matrix : Default (H.263)
Codec ID : DX50
Codec ID/Hint : DivX 5
Duration : 2h 33mn
Bit rate : 1 099 Kbps
Width : 688 pixels
Height : 336 pixels
Display aspect ratio : 2.048
Frame rate : 25.000 fps
Resolution : 24 bits
Colorimetry : 4:2:0
Scan type : Progressive
Bits/(Pixel*Frame) : 0.190
Stream size : 1.18 GiB (89%)
Writing library : XviD 1.2.0.dev47 (UTC 2006-11-01)

Audio
Format : MPEG Audio
Format version : Version 1
Format profile : Layer 3
Codec ID : 55
Codec ID/Hint : MP3
Duration : 2h 33mn
Bit rate mode : Constant
Bit rate : 128 Kbps
Channel(s) : 2 channels
Sampling rate : 48.0 KHz
Resolution : 16 bits
Stream size : 140 MiB (10%)
Alignment : Aligned on interleaves
Interleave, duration : 40 ms (1.00 video frame)
Writing library : LAME3.98r
Encoding settings : -m j -V 4 -q 2 -lowpass 17 -b 128

[/quote]


Hollywood MOVIESSSSSS[ronakt] [ronaktwl][H33T] preview 15
Hollywood MOVIESSSSSS[ronakt] [ronaktwl][H33T] preview 16
Hollywood MOVIESSSSSS[ronakt] [ronaktwl][H33T] preview 17

[color=red]T[/color][color=tomato]h[/color][color=orangered]a[/color][color=orange]n[/color][color=gold]k[/color][color=yellow]s[/color] [color=greenyellow]&[/color] [color=turquoise]E[/color][color=aqua]n[/color][color=deepskyblue]j[/color][color=lightskyblue]o[/color][color=lightgreen]y[/color][color=khaki]![/color][color=tomato]![/color][color=pink]![/color]:)

related torrents

Torrent name

health leech seeds Size
 


comments (0)

Main Menu