Drama

Zwartboek 2006 DVDRIP ZEKTORM

  • Download 5x Faster
  • Download torrent
  • Direct Download
  • Rate this torrent +  |  -
Zwartboek 2006 DVDRIP ZEKTORM

Anonymous and Free Direct Download 300GB+


Torrent info

Name:Zwartboek 2006 DVDRIP ZEKTORM

Total Size: 699.80 MB

Magnet: Magnet Link

Seeds: 4

Leechers: 2

Stream: Watch Online @ Movie4u

Last Updated: 2011-01-16 04:22:23 (Update Now)

Torrent added: 2009-09-02 23:32:52



VPN For Torrents

Torrent Files List


READ.hlp (Size: 699.80 MB) (Files: 2)

 READ.hlp

12.49 KB

 Zwartboek.2006.DVDRIP-ZEKTORM.mp4

699.79 MB
 

Announce URL: http://tracker.torrentbox.com:2710/announce

Torrent description

Title : Zwartboek
Year : 2006
Genre : Drama | Thriller | War
iMDB Rate : User Rating: 8.0/10 19,094 votes
iMDB URL : http://www.imdb.com/title/tt0389557/
Awards : Nominated for BAFTA Film Award. Another 10 wins & 14 nominations

Complete name : Zwartboek.2006.DVDRIP-ZEKTORM.mp4
Format : MPEG-4
Format profile : Base Media
Codec ID : isom
File size : 700 MiB
Duration : 2h 19mn
Overall bit rate : 701 Kbps
Subtitles : English (Hardcoded)
Source : DVD PAL
Encoded date : UTC 2009-01-06 03:44:26

Video
Format : AVC
Format/Info : Advanced Video Codec
Format profile : [email protected]
Format settings, CABAC : Yes
Format settings, ReFrames : 10 frames
Codec ID : avc1
Codec ID/Info : Advanced Video Coding
Duration : 2h 19mn
Bit rate mode : Variable
Bit rate : 615 Kbps
Maximum bit rate : 5695 Kbps
Width : 720 pixels
Height : 432 pixels
Display aspect ratio : 2.424
Frame rate mode : Constant
Frame rate : 25.000 fps
Resolution : 24 bits
Colorimetry : 4:2:0
Scan type : Progressive
Bits/(Pixel*Frame) : 0.079
Stream size : 613 MiB (88%)
Title : Video
Writing library : x264 core 60 r900 a9af942

Audio
Format : AAC
Format/Info : Advanced Audio Codec
Format version : Version 4
Format profile : LC
Format settings, SBR : Yes
Format settings, PS : No
Codec ID : 40
Duration : 2h 19mn
Bit rate mode : Variable
Bit rate : 83.5 Kbps
Maximum bit rate : 108 Kbps
Channel(s) : 2 channels
Channel positions : L R
Sampling rate : 48.0 KHz
Resolution : 16 bits
Stream size : 83.3 MiB (12%)
Title : Dutch
Language : Dutch

related torrents

Torrent name

health leech seeds Size

Zwartboek 2006 Pal Dvdr

0 0 2.00 GB 0
 


comments (0)

Main Menu