Drama

Yanks (1979) Richard Gere (Widescreen DVDrip)

  • Download 5x Faster
  • Download torrent
  • Direct Download
  • Rate this torrent +  |  -
Yanks (1979) Richard Gere (Widescreen DVDrip)

Anonymous and Free Direct Download 300GB+


Torrent info

Name:Yanks (1979) Richard Gere (Widescreen DVDrip)

Total Size: 694.53 MB

Magnet: Magnet Link

Seeds: 0

Leechers: 0

Stream: Watch Online @ Movie4u

Last Updated: 2016-12-31 23:59:10 (Update Now)

Torrent added: 2009-09-02 23:20:06



VPN For Torrents

Torrent Files List


Notes on subtitle files.txt (Size: 694.53 MB) (Files: 3)

 Notes on subtitle files.txt

1.68 KB

 Yanks_1979_Richard_Gere.avi

693.74 MB

 Yanks_1979_subtitles.rar

811.06 KB
 

tracker

leech seeds
 

Torrent description

Yanks (1979)
Optional Swedish subtitles in separate idx/sub files.

All available subs here

Also with Vanessa Redgrave.

Exceptional wartime quality drama with Richard Gere among a million other American soldiers stationed in England awaiting the final stage of WW2. Their local girlfriends knew they could lose their man the next day.

Richard Gere starred in this film one year before 'American Gigolo'.

P.S.: If you think you recognize Rachel Roberts as his girlfriend's tired mother, you are right. She played the karate woman in 'Foul Play' with Goldie Hawn, and quite a different part in 'O lucky man' with Malcom McDowell.

This good film seems to have vanished from the torrent sites, so I made this new rip. My improved ripping procedures now give surprisingly good qualtiy of such a long film into only 700 MiB.

Color widescreen XviD 2-pass 704x368, original simulated stereo sound AC3.

Format/Info : Audio Video Interleave
File size : 694 MiB
Duration : 2h 13mn
Overal bit rate : 729 Kbps

Video
Format : MPEG-4 Visual
Format profile : Streaming [email protected]
Format settings, BVOP : Yes
Format settings, QPel : No
Format settings, GMC : No warppoints
Format settings, Matrix : Default
Muxing mode : Packet Bitstream
Codec ID : XVID
Codec ID/Hint : XviD
Duration : 2h 13mn
Bit rate : 591 Kbps
Width : 704 pixels
Height : 368 pixels
Display aspect ratio : 1.913
Frame rate : 25.000 fps
Resolution : 8 bits
Colorimetry : 4:2:0
Scan type : Progressive
Bits/(Pixel*Frame) : 0.091
Stream size : 563 MiB
Writing library : XviD 1.2.0.dev47 (UTC 2006-11-01)

Audio
Format : MPEG Audio
Format version : Version 1
Format profile : Layer 3
Codec ID : 55
Codec ID/Hint : MP3
Duration : 2h 13mn
Bit rate mode : Constant
Bit rate : 128 Kbps
Minimum bit rate : 128 Kbps
Channel(s) : 2 channels
Sampling rate : 48.0 KHz
Resolution : 16 bits
Stream size : 122 MiB
Writing library : LAME3.97
Encoding settings : CBR

Thanks to Kuthumi!

related torrents

Torrent name

health leech seeds Size
 


comments (0)

Main Menu