Drama

White Palace (1990) Susan Sarandon (Dual ENG FRA MULTISUBS) 4371577 TPB

  • Download 5x Faster
  • Download torrent
  • Direct Download
  • Rate this torrent +  |  -
White Palace (1990) Susan Sarandon (Dual ENG FRA MULTISUBS) 4371577 TPB

Free and Direct Download with Usenet.nl 300GB+ free


Torrent info

Name:White Palace (1990) Susan Sarandon (Dual ENG FRA MULTISUBS) 4371577 TPB

Total Size: 700.62 MB

Magnet: Magnet Link

Seeds: 0

Leechers: 0

Stream: Watch Online @ Movie4u

Last Updated: 0000-00-00 00:00:00 (Update Now)

Torrent added: 2009-09-02 23:01:30





Torrent Files List


Info about this release.txt (Size: 700.62 MB) (Files: 4)

 Info about this release.txt

5.65 KB

 Notes on subtitle files.txt

1.68 KB

 White Palace (1990) Optional Swedish subs.rar

492.26 KB

 White Palace (1990) Susan Sarandon (Dual ENG-FRA,opt.SWESUBS)_Kuth.avi

700.13 MB
 

Announce URL:

Torrent description

White Palace (1990)
Optional Swedish subtitles in separate idx/sub files included in this torrent.
Additional Danish, Dutch, English, Finnish and German subs uploaded in new torrent: http://thepiratebay.org/torrent/4397331

With Susan Sarandon, James Spader (then 30, from Stargate 1994) and Jason Alexander (then 31, from Seinfeld).

Good story about a young, rich man who falls in love with a mature working woman. A full DVD has survived here at PirateBay since since June, 2005, so I made this rip for those of you who cannot handle such downloads. I would have thought this film too special for you guys here, but perhaps it\'s the hot sex with an experienced woman that keeps up the interest.

Thanks to user \'abraksta\' for uploading the DVD, which contains several audio tracks in stereo and lots of subtitles. It still has seeders at http://thepiratebay.org/torrent/3349403/
I kept the French soundtrack.

XviD 2-pass Widescreen 704x384, good stereo AC3 on both soundtracks: Original English (track 1) and French (track 2).

English track plays normal in WMP. To hear French, open in DivX Player or some other, right-click and choose track 2.

Burn tested, runs well in both my DivX players. Choose audio track with remote as for DVD.

Format/Info : Audio Video Interleave
File size : 700 MiB
Duration : 1h 38mn
Overal bit rate : 992 Kbps

Video
Format : MPEG-4 Visual
Format profile : Streaming [email protected]
Format settings, BVOP : Yes
Format settings, QPel : No
Format settings, GMC : No warppoints
Format settings, Matrix : Default
Muxing mode : Packet Bitstream
Codec ID : XVID
Codec ID/Hint : XviD
Duration : 1h 38mn
Bit rate : 722 Kbps
Width : 704 pixels
Height : 384 pixels
Display aspect ratio : 16/9
Frame rate : 25.000 fps
Resolution : 8 bits
Colorimetry : 4:2:0
Scan type : Progressive
Bits/(Pixel*Frame) : 0.107
Stream size : 509 MiB
Writing library : XviD 1.2.0.dev47 (UTC 2006-11-01)

Audio #1 (English)
Format : MPEG Audio
Format version : Version 1
Format profile : Layer 3
Codec ID : 55
Codec ID/Hint : MP3
Duration : 1h 38mn
Bit rate mode : Constant
Bit rate : 128 Kbps
Minimum bit rate : 128 Kbps
Channel(s) : 2 channels
Sampling rate : 48.0 KHz
Resolution : 16 bits
Stream size : 90.3 MiB
Writing library : LAME3.97
Encoding settings : CBR

Audio #2 (French)
Format : MPEG Audio
Format version : Version 1
Format profile : Layer 3
Codec ID : 55
Codec ID/Hint : MP3
Duration : 1h 38mn
Bit rate mode : Constant
Bit rate : 128 Kbps
Minimum bit rate : 128 Kbps
Channel(s) : 2 channels
Sampling rate : 48.0 KHz
Resolution : 16 bits
Stream size : 90.3 MiB
Writing library : LAME3.97
Encoding settings : CBR

Source: PAL (note that PAL/NTSC will give no problems for avi files)

Be a good sport ... keep it seeded!


Thanks Kuthumi!

related torrents

Torrent name

health leech seeds Size
 

comments (0)

Main Menu