Drama

Wendy and Lucy DVD Screener Xvid[h33t][Dave3737]

  • Download 5x Faster
  • Download torrent
  • Direct Download
  • Rate this torrent +  |  -
Wendy and Lucy DVD Screener Xvid[h33t][Dave3737]

Free and Direct Download with Usenet.nl 300GB+ free


Torrent info

Name:Wendy and Lucy DVD Screener Xvid[h33t][Dave3737]

Total Size: 699.78 MB

Magnet: Magnet Link

Seeds: 0

Leechers: 0

Stream: Watch Online @ Movie4u

Last Updated: 2015-03-03 02:41:47 (Update Now)

Torrent added: 2009-09-02 22:53:02





Torrent Files List


h33t - Dave 3737 Torrent list.URL (Size: 699.78 MB) (Files: 4)

 h33t - Dave 3737 Torrent list.URL

0.07 KB

 tracked_by_h33t_com.txt

0.02 KB

 Wendy and Lucy DVD Screener Xvid.avi

699.78 MB

 Wendy and Lucy DVD Screener Xvid.txt

3.63 KB
 

tracker

leech seeds
 

Torrent description

Wendy and Lucy DVD Screener Xvid[h33t][Dave3737] preview 2


Wendy and Lucy DVD Screener Xvid[h33t][Dave3737] preview 0


[color=red]Wendy and Lucy DVD Screener Xvid.avi[/color]

Format : AVI
Format/Info : Audio Video Interleave
File size : 700 MiB
Duration : 1h 20mn
Overall bit rate : 1 213 Kbps
Writing application : VirtualDubMod 1.5.10.2 (build 2542/release)
Writing library : VirtualDubMod build 2542/release

Video
Format : MPEG-4 Visual
Format profile : Streaming [email protected]
Format settings, BVOP : Yes
Format settings, QPel : No
Format settings, GMC : No warppoints
Format settings, Matrix : Default
Muxing mode : Packed bitstream
Codec ID : XVID
Codec ID/Hint : XviD
Duration : 1h 20mn
Bit rate : 1 067 Kbps
Width : 640 pixels
Height : 352 pixels
Display aspect ratio : 16/9
Frame rate : 23.976 fps
Resolution : 24 bits
Colorimetry : 4:2:0
Scan type : Progressive
Bits/(Pixel*Frame) : 0.197
Stream size : 615 MiB (88%)
Writing library : XviD 50

Audio
Format : MPEG Audio
Format version : Version 1
Format profile : Layer 3
Codec ID : 55
Codec ID/Hint : MP3
Duration : 1h 20mn
Bit rate mode : Variable
Bit rate : 133 Kbps
Minimum bit rate : 128 Kbps
Channel(s) : 2 channels
Sampling rate : 48.0 KHz
Resolution : 16 bits
Stream size : 77.0 MiB (11%)
Alignment : Aligned on interleaves
Interleave, duration : 24 ms (0.58 video frame)
Interleave, preload duration : 138 ms
Writing library : LAME3.98r
Encoding settings : VBR (mtrh)


http://www.imdb.com/title/tt1152850/


[color=red]Description[/color]

A woman's life is derailed en route to a potentially lucrative summer job. When her car breaks down, and her dog is taken to the pound, the thin fabric of her financial situation comes apart, and she is led through a series of increasingly dire economic decisions


[color=red]Cast[/color]

Michelle Williams ... Wendy
Will Patton ... Mechanic
Will Oldham ... Icky
John Robinson ... Andy
Wally Dalton ... Security Guard
Larry Fessenden ... Man in Park



[size=4][color=red]
Torrent Files:[/color][/size]

[color=violet]Dave3737 h33t user details torrent link php.

tracked_by_h33t_com txt.

Wendy and Lucy DVD Screener Xvid.avi

Wendy and Lucy DVD Screener Xvid.avi info .txt[/color]



[color=red]My Torrents[/color]


Wendy and Lucy DVD Screener Xvid[h33t][Dave3737] preview 3

Wendy and Lucy DVD Screener Xvid[h33t][Dave3737] preview 4

Wendy and Lucy DVD Screener Xvid[h33t][Dave3737] preview 5
Wendy and Lucy DVD Screener Xvid[h33t][Dave3737] preview 6
Wendy and Lucy DVD Screener Xvid[h33t][Dave3737] preview 1
Wendy and Lucy DVD Screener Xvid[h33t][Dave3737] preview 7



related torrents

Torrent name

health leech seeds Size
 

comments (0)

Main Menu