Movies

Cirque Du Freak The Vampires Assistant Ts Readnfo Xvid Imagine Torrent [the Monkey House Com]

  • Download 5x Faster
  • Download torrent
  • Direct Download
  • Rate this torrent +  |  -

Torrent info

Name:Cirque Du Freak The Vampires Assistant Ts Readnfo Xvid Imagine Torrent [the Monkey House Com]

Total Size: 516.93 MB

Magnet: Magnet Link

Seeds: 0

Leechers: 0

Stream: Watch Online @ Movie4u

Last Updated: 0000-00-00 00:00:00 (Update Now)

Torrent added: 2009-10-27 07:15:01




Torrent Files List


Avatar.2009.DvDScreener-KLAXXON.rar (Size: 693.14 MB) (Files: 2)

 Avatar.2009.DvDScreener-KLAXXON.rar

693.14 MB

 Read Me!!!.txt

0.45 KB
 

Announce URL: http://The-Monkey-House.com/announce.php

Torrent description

Genre: Action | Adventure | Comedy | Fantasy | Horror | Thriller

Release Date: 7 January 2010 (Germany)

User Rating: 6.6/10 6.6/10 958 votes

Language: English

Country: USA

Runtime: USA:108 min

Plot Outline: A young boy named Darren Shan meets a mysterious man at a freak show who turns out to be a Vampire. After a series of events Darren must leave his normal life and go on the road with the Cirque Du Freak and become a Vampire. | full synopsis

IMDB Link: http://www.imdb.com/title/tt0450405/



Details for torrent " 4390-Cirque Du Freak The Vampires Assistant TS READNFO XVID - IMAGiNE. "



********************************************************************************************************************

Cirque Du Freak The Vampires Assistant TS READNFO XVID - IMAGiNE

********************************************************************************************************************



Ripper ...........: IMAGiNE IMDB Rating.......:6.6/10

Video Codec.......: XVID Release Date......:26/10/09

Audio Codec.......:MP3 Theatre Date......:23/10/09

Audio Bitrate.....:128 Runtime.......:1h 43mn

Subtitles.........:NIL Language..........:ENGLISH

Resolution...... 640 x 252 IMDb URL..........:http://www.imdb.com/title/tt0450405/





DETAILS:



Video

ID : 0

Format : MPEG-4 Visual

Format profile : Advanced [email protected]

Format settings, BVOP : Yes

Format settings, QPel : No

Format settings, GMC : No warppoints

Format settings, Matrix : Default (MPEG)

Muxing mode : Packed bitstream

Codec ID : XVID

Codec ID/Hint : XviD

Duration : 1h 43mn

Bit rate : 552 Kbps

Width : 640 pixels

Height : 252 pixels

Display aspect ratio : 2.540

Frame rate : 25.000 fps

Resolution : 24 bits

Colorimetry : 4:2:0

Scan type : Progressive

Bits/(Pixel*Frame) : 0.137

Stream size : 408 MiB (80%)

Writing library : XviD 1.2.1 (UTC 2008-12-04)



Audio

ID : 1

Format : MPEG Audio

Format version : Version 1

Format profile : Layer 3

Codec ID : 55

Codec ID/Hint : MP3

Duration : 1h 43mn

Bit rate mode : Variable

Bit rate : 123 Kbps

Nominal bit rate : 128 Kbps

Channel(s) : 2 channels

Sampling rate : 44.1 KHz

Resolution : 16 bits

Stream size : 91.1 MiB (18%)

Alignment : Aligned on interleaves

Interleave, duration : 26 ms (0.65 video frame)

Interleave, preload duration : 523 ms

Writing library : LAME3.92

Encoding settings : -m j -V 4 -q 2 -lowpass 17.5 --abr 128





NOTES:



IMAGiNE bringing you another release.....

Now first off got to say the source files we got were really dark.....done the best we could with the video

needed some cropping and tweaking done to it.Please see screen and check sample so you can see the

quality as we know it ain't great at all.

Audio wise ....thanks to our new friend for the hand and quality wise this is some nice direct audio..enjoy.



You keep supplying the cams and we'll keep supplying you the TS's

related torrents

Torrent name

health leech seeds Size
 


comments (0)