Drama

Vite strozzate,[DivX Ita Mp3][

  • Download 5x Faster
  • Download torrent
  • Direct Download
  • Rate this torrent +  |  -
Vite strozzate,[DivX Ita Mp3][

Free and Direct Download with Usenet 300GB+ free


Torrent info

Name:Vite strozzate,[DivX Ita Mp3][

Total Size: 692.51 MB

Magnet: Magnet Link

Seeds: 0

Leechers: 0

Stream: Watch Online @ Movie4u

Last Updated: 0000-00-00 00:00:00 (Update Now)

Torrent added: 2009-09-02 22:32:21




Torrent Files List


Vite Strozzate.avi (Size: 692.51 MB) (Files: 1)

 Vite Strozzate.avi

692.51 MB
 

Announce URL:

Torrent description

Vite strozzate,[DivX - Ita Mp3][www.tntvillage.scambioetico.org]

Scheda del film

Titolo:Vite strozzate
Titolo originale:Vite strozzate
Nazionalità:Italia
Anno:1996
Genere:Drammatico
Regia:Ricky Tognazzi
Produzione:Vittorio Cecchi Gori
Distribuzione:Cecchi Gori Group
Data di uscita:1996

Cast

Sabrina Ferilli, Vincent Lindon, Luca Zingaretti, Ricky Memphis, Violante Placido, Lina Sastri, Francesco Saverio Venditti



Scheda tecnica del DivX


General
Complete name : Vite Strozzate.avi
Format : AVI
Format/Info : Audio Video Interleave
File size : 693 MiB
Duration : 1h 43mn
Overall bit rate : 932 Kbps

Video
Format : MPEG-4 Visual
Format settings, BVOP : Yes
Format settings, QPel : No
Format settings, GMC : No warppoints
Format settings, Matrix : Default
Codec ID : DX50
Codec ID/Hint : DivX 5
Duration : 1h 43mn
Bit rate : 791 Kbps
Width : 720 pixels
Height : 384 pixels
Display aspect ratio : 1.875
Frame rate : 25.000 fps
Resolution : 8 bits
Scan type : Progressive
Bits/(Pixel*Frame) : 0.114
Stream size : 588 MiB (85%)
Title : DVD2VIDEO
Writing library : DivX 5.1.1 (Maupiti) (UTC 2003-11-19)

Audio
Format : MPEG Audio
Format version : Version 1
Format profile : Layer 3
Codec ID : 55
Codec ID/Hint : MP3
Bit rate mode : Constant
Bit rate : 128 Kbps
Channel(s) : 2 channels
Sampling rate : 48.0 KHz
Resolution : 16 bits
Stream size : 95.1 MiB (14%)
Alignment : Split accross interleaves
Interleave, duration : 24 ms (0.60 video frame)
Title : DVD2AUDIO00


related torrents

Torrent name

health leech seeds Size
 

comments (0)

Main Menu