Drama

Un Homme Perdu 2007 DVDRip XviD HORIZON noriegaRJ

  • Download 5x Faster
  • Download torrent
  • Direct Download
  • Rate this torrent +  |  -
Un Homme Perdu 2007 DVDRip XviD HORIZON noriegaRJ

Free and Direct Download with Usenet.nl 300GB+ free


Torrent info

Name:Un Homme Perdu 2007 DVDRip XviD HORIZON noriegaRJ

Total Size: 698.82 MB

Magnet: Magnet Link

Seeds: 0

Leechers: 0

Stream: Watch Online @ Movie4u

Last Updated: 2015-09-29 16:06:37 (Update Now)

Torrent added: 2009-09-02 22:06:26





Torrent Files List


Un.Homme.Perdu.2007.DVDRip.XviD.HORIZON.noriegaRJ.avi (Size: 698.82 MB) (Files: 1)

 Un.Homme.Perdu.2007.DVDRip.XviD.HORIZON.noriegaRJ.avi

698.82 MB
 

tracker

leech seeds
 

Torrent description

HORIZON Group proudly presents:

UN HOMME PERDU (2007)

"The first release of the movie in the world. Brazil coming DVD premiere."

Director and writer: Danielle Arbid

Cast:

Melvil Poupaud ... Thomas Koré
Alexander Siddig ... Fouad Saleh
Darina El Joundi ... Najla Saleh (as Darina Al Joundi)
Yasmine Lafitte ... Fille marocaine
Carole Ammoun ... File boîte de nuit
Takla Chamoun ... Femme du taxi
Priska Farrel ... Fille en rose
Laudi Arbid ... Mère de Fouad Saleh (as Laudi Arbid-Nasr)
Issam Bou Khaled ... Policier moustachu
Fadi Abi Samra ... Paysan en chef
Julia Kassar ... Femme des disparus
Yasser Taha ... Homme tatoué bar
Hala Al-Tal ... Ami jardin public
Moutassem Fahmawi ... Douanier bureau 1
Raed Awartani ... Douanier bureau 2

Runtime: 93 min (theatrical version)

Country: France / 2007

Language: French

Plot:
UN HOMME PERDU stars Melvil Poupaud as Thomas Koré, a French photographer who travels around the world for his research about extreme experiences. During his travels, he crosses paths with Fouad Saleh - played by British-Sudanese actor Alexander Siddig - a solitary and amnesic man. Saleh disappeared from Beirut 17 years ago and never returned. Intrigued, Koré tries to discover the history of this man, and the experience changes him forever. The history and especially the character of Thomas Koré is strongly inspired by the photographic wanderings of Antoine d'Agata, the set consultant for Danielle Arbid. Written by M. Lowery

IMDB: http://www.imdb.com/title/tt0947093/

Release Informations:

Complete name : Un.Homme.Perdu.2007.DVDRip.XviD.HORIZON.noriegaRJ
Format : AVI
Format/Info : Audio Video Interleave
File size : 699 MiB
Duration : 1h 29mn
Overall bit rate : 1 088 Kbps
Writing application : FairUse Wizard - http://fairusewizard.com
Writing library : The best and REALLY easy backup tool

Video
Format : MPEG-4 Visual
Format profile : Streaming [email protected]
Format settings, BVOP : Yes
Format settings, QPel : No
Format settings, GMC : No warppoints
Format settings, Matrix : Default
Muxing mode : Packed bitstream
Codec ID : XVID
Codec ID/Hint : XviD
Duration : 1h 29mn
Bit rate : 948 Kbps
Width : 512 pixels
Height : 288 pixels
Display aspect ratio : 16/9
Frame rate : 29.970 fps
Resolution : 24 bits
Colorimetry : 4:2:0
Scan type : Progressive
Bits/(Pixel*Frame) : 0.215
Stream size : 609 MiB (87%)
Writing library : XviD 1.1.0 (UTC 2005-11-22)

Audio
Format : MPEG Audio
Format version : Version 1
Format profile : Layer 3
Codec ID : 55
Codec ID/Hint : MP3
Duration : 1h 29mn
Bit rate mode : Constant
Bit rate : 128 Kbps
Minimum bit rate : 128 Kbps
Channel(s) : 2 channels
Sampling rate : 48.0 KHz
Resolution : 16 bits
Stream size : 82.2 MiB (12%)
Alignment : Aligned on interleaves
Interleave, duration : 33 ms (1.00 video frame)
Interleave, preload duration : 504 ms
Writing library : LAME3.97b
Encoding settings : CBR

related torrents

Torrent name

health leech seeds Size
 

comments (0)

Main Menu