Drama

Toronto Stories (2008) DVDr (nl subs) Nlt Release By Zero Yuy

  • Download 5x Faster
  • Download torrent
  • Direct Download
  • Rate this torrent +  |  -
Toronto Stories (2008) DVDr (nl subs) Nlt Release By Zero Yuy

Free and Direct Download with Usenet 300GB+ free


Torrent info

Name:Toronto Stories (2008) DVDr (nl subs) Nlt Release By Zero Yuy

Total Size: 800.53 MB

Magnet: Magnet Link

Seeds: 0

Leechers: 1

Stream: Watch Online @ Movie4u

Last Updated: 2017-01-27 03:10:09 (Update Now)

Torrent added: 2009-09-02 21:33:35




Torrent Files List


Cover.jpg (Size: 800.53 MB) (Files: 5)

 Cover.jpg

43.65 KB

 Important! Torrent Created by Zero Yuy.txt

0.35 KB

 nfo.txt

2.11 KB

 Toronto Stories NTSC 2009 NL.avi

800.48 MB

 Torrent_downloaded_from_Demonoid.com.txt

0.05 KB
 

tracker

leech seeds
 

Torrent description

http://www.imdb.com/title/tt1113827/

Canada
Drama

Various lives intersect over the course of 48 hours in Canada's largest and most culturally diverse city.


Video Info:

General
Format : AVI
Format/Info : Audio Video Interleave
File size : 800 MiB
Duration : 1h 27mn
Overall bit rate : 1 280 Kbps
Writing application : VirtualDubMod 1.5.4.1 (build 2178/release)
Writing library : VirtualDubMod build 2178/release

Video
Format : MPEG-4 Visual
Format profile : Streaming [email protected]
Format settings, BVOP : Yes
Format settings, QPel : No
Format settings, GMC : No warppoints
Format settings, Matrix : Custom
Codec ID : XVID
Codec ID/Hint : XviD
Duration : 1h 27mn
Bit rate : 825 Kbps
Width : 608 pixels
Height : 336 pixels
Display aspect ratio : 16/9
Frame rate : 23.976 fps
Resolution : 24 bits
Colorimetry : 4:2:0
Scan type : Progressive
Bits/(Pixel*Frame) : 0.168
Stream size : 516 MiB (64%)
Writing library : XviD 1.2.1 (UTC 2008-12-04)

Audio
Format : AC-3
Format/Info : Audio Coding 3
Codec ID : 2000
Duration : 1h 27mn
Bit rate mode : Constant
Bit rate : 448 Kbps
Channel(s) : 6 channels
Channel positions : Front: L C R, Surround: L R, LFE
Sampling rate : 48.0 KHz
Stream size : 280 MiB (35%)
Alignment : Split accross interleaves
Interleave, duration : 96 ms (2.30 video frames)
Interleave, preload duration : 96 ms
Language : English
Subtitles : Dutch

Brought to you by Nlt Release @

http://nlt.ons-forum.nl

related torrents

Torrent name

health leech seeds Size
 

comments (0)

Main Menu