Drama

Titanic [1997] DVDRip N!CK

  • Download 5x Faster
  • Download torrent
  • Direct Download
  • Rate this torrent +  |  -
Titanic [1997] DVDRip N!CK

Free and Direct Download with Usenet.nl 300GB+ free


Torrent info

Name:Titanic [1997] DVDRip N!CK

Total Size: 1.37 GB

Magnet: Magnet Link

Seeds: 5

Leechers: 2

Stream: Watch Online @ Movie4u

Last Updated: 2011-01-07 22:23:48 (Update Now)

Torrent added: 2009-09-02 21:27:29





Torrent Files List


Subtitles (Size: 1.37 GB) (Files: 5)

 Subtitles

  Titanic [1997] DVDRip [ENG].srt

142.73 KB

  Titanic [1997] DVDRip [ROM].srt

136.58 KB

 Titanic [1997] DVDRip - N!CK.avi

1.36 GB

 Sample.avi

9.65 MB

 Release Info.txt

0.97 KB
 

Announce URL: http://tracker.openbittorrent.com:80/announce

Torrent description

General
Complete name : C:\Titanic [1997] DVDRip - N!CK\Titanic [1997] DVDRip - N!CK.avi
Format : AVI
Format/Info : Audio Video Interleave
File size : 1.36 GiB
Duration : 3h 6mn
Overal bit rate : 1045 Kbps

Video
Format : MPEG-4 Visual
Format profile : Streaming [email protected]
Format settings, BVOP : Yes
Format settings, QPel : No
Format settings, GMC : No warppoints
Format settings, Matrix : Default
Codec ID : XVID
Codec ID/Hint : XviD
Duration : 3h 6mn
Bit rate : 920 Kbps
Width : 672 pixels
Height : 316 pixels
Display aspect ratio : 2.2
Frame rate : 25.000 fps
Resolution : 8 bits
Colorimetry : 4:2:0
Scan type : Progressive
Bits/(Pixel*Frame) : 0.173
Stream size : 1.20 GiB
Writing library : XviD 50

Audio
Format : MPEG Audio
Format version : Version 1
Format profile : Layer 3
Codec ID : 55
Codec ID/Hint : MP3
Bit rate mode : Constant
Bit rate : 112 Kbps
Channel(s) : 2 channels
Sampling rate : 48.0 KHz
Resolution : 16 bits
Stream size : 150 MiB

related torrents

Torrent name

health leech seeds Size

Titanic (1997) HDCam XViD

0 0 683.31 MB 0

Titanic (1997) HDCam XViD

5328 6469 683.31 MB 0

Titanic (1997) HDCam XViD

3710 6198 683.31 MB 0

Titanic (1997) HDCam XViD

20 41 683.31 MB 0
 

comments (0)

Main Menu