Drama

THIS IS [email protected] H 264 AAC MP4 RIP[ENG]

  • Download 5x Faster
  • Download torrent
  • Direct Download
  • Rate this torrent +  |  -

Torrent info

Name:THIS IS [email protected] H 264 AAC MP4 RIP[ENG]

Total Size: 899.66 MB

Magnet: Magnet Link

Seeds: 6

Leechers: 3

Stream: Watch Online @ Movie4u

Last Updated: 2010-09-09 06:42:55 (Update Now)

Torrent added: 2009-09-02 21:17:53




Torrent Files List


3471051x.jpg (Size: 899.66 MB) (Files: 3)

 3471051x.jpg

35.32 KB

 tie.mp4

899.63 MB

 Torrent downloaded from Demonoid.com.txt

0.05 KB
 

Announce URL: http://inferno.demonoid.com:3415/announce

Torrent description

Roland Rat, Margaret Thatcher; Rubik's Cubes, the Royal Wedding; aerobics, skinheads... It's 1983, and the schools are breaking up for summer.

Shaun is 12 and a bit of a loner, growing up with his mum in a grim coastal town, his dad was killed fighting in the Falklands War. On his way home from school, where he's been tormented all day for wearing flares, he runs into a group of skinheads, who against expectations turn out to be friendly and take him under their wing. Soon Shaun discovers parties, girls and snappy dressing, and finds some role models in Woody, Milky and the rest of the gang. But when an older, overtly racist skinhead returns home from prison, the easy camaraderie of the group is broken, and Shaun is drawn into much more uncomfortable territory...
------------------------------
Format : MPEG-4
Format profile : Base Media / Version 2
Codec ID : mp42
File size : 900 MiB
Duration : 1h 37mn
Overall bit rate : 1 289 Kbps
Encoded date : UTC 2009-06-17 17:33:00
Tagged date : UTC 2009-06-17 22:51:22
Writing application : HandBrake 0.9.3 2008112300

Video
Format : AVC
Format/Info : Advanced Video Codec
Format profile : [email protected]
Format settings, CABAC : Yes
Format settings, ReFrames : 3 frames
Codec ID : avc1
Codec ID/Info : Advanced Video Coding
Duration : 1h 37mn
Bit rate mode : Variable
Bit rate : 1 126 Kbps
Width : 716 pixels
Height : 552 pixels
Display aspect ratio : 16/9
Frame rate mode : Variable
Frame rate : 25.000 fps
Minimum frame rate : 12.500 fps
Maximum frame rate : 25.000 fps
Resolution : 24 bits
Colorimetry : 4:2:0
Scan type : Progressive
Bits/(Pixel*Frame) : 0.114
Stream size : 786 MiB (87%)
Writing library : x264 core 65


Audio
Format : AAC
Format/Info : Advanced Audio Codec
Format version : Version 4
Format profile : LC
Format settings, SBR : No
Codec ID : 40
Duration : 1h 37mn
Bit rate mode : Variable
Bit rate : 160 Kbps
Maximum bit rate : 214 Kbps
Channel(s) : 2 channels
Channel positions : L R
Sampling rate : 48.0 KHz
Resolution : 16 bits
Stream size : 111 MiB (12%)
Language : English
Encoded date : UTC 2009-06-17 17:33:00
Tagged date : UTC 2009-06-17 22:51:15

related torrents

Torrent name

health leech seeds Size
 

comments (0)

Main Menu