Drama

The Lucky Ones 2008 DVDRIP ZEKTORM

  • Download 5x Faster
  • Download torrent
  • Direct Download
  • Rate this torrent +  |  -
The Lucky Ones 2008 DVDRIP ZEKTORM

Free and Direct Download with Usenet.nl 300GB+ free


Torrent info

Name:The Lucky Ones 2008 DVDRIP ZEKTORM

Total Size: 711.44 MB

Magnet: Magnet Link

Seeds: 0

Leechers: 0

Stream: Watch Online @ Movie4u

Last Updated: 2015-12-08 23:53:32 (Update Now)

Torrent added: 2009-09-02 21:05:38





Torrent Files List


READ.hlp (Size: 711.44 MB) (Files: 4)

 READ.hlp

12.64 KB

 Subs

  The.Lucky.Ones.2008.DVDRIP-ZEKTORM.idx

156.97 KB

  The.Lucky.Ones.2008.DVDRIP-ZEKTORM.sub

10.81 MB

 The.Lucky.Ones.2008.DVDRIP-ZEKTORM.mp4

700.47 MB
 

tracker

leech seeds
 

Torrent description

Title : The Lucky Ones
Year : 2008
Genre : Comedy | Drama | War
iMDB Rate : User Rating: 7.7/10 501 votes
iMDB URL : http://www.imdb.com/title/tt0981072/

Complete name : The.Lucky.Ones.2008.DVDRIP-ZEKTORM.mp4
Format : MPEG-4
Format profile : Base Media
Codec ID : isom
File size : 700 MiB
Duration : 1h 53mn
Overall bit rate : 866 Kbps
Subtitles : English, Spanish (Format: VobSub)
Source : DVD NTSC
Encoded date : UTC 2009-01-14 12:38:24

Video
Format : AVC
Format/Info : Advanced Video Codec
Format profile : [email protected]
Format settings, CABAC : Yes
Format settings, ReFrames : 10 frames
Codec ID : avc1
Codec ID/Info : Advanced Video Coding
Duration : 1h 53mn
Bit rate mode : Variable
Bit rate : 787 Kbps
Maximum bit rate : 4572 Kbps
Width : 704 pixels
Height : 480 pixels
Display aspect ratio : 16/9
Frame rate mode : Constant
Frame rate : 23.976 fps
Resolution : 24 bits
Colorimetry : 4:2:0
Scan type : Progressive
Bits/(Pixel*Frame) : 0.097
Stream size : 637 MiB (91%)
Title : Video
Writing library : x264 core 60 r900 a9af942

Audio
Format : AAC
Format/Info : Advanced Audio Codec
Format version : Version 4
Format profile : LC
Format settings, SBR : Yes
Format settings, PS : No
Codec ID : 40
Duration : 1h 53mn
Bit rate mode : Variable
Bit rate : 75.7 Kbps
Maximum bit rate : 108 Kbps
Channel(s) : 2 channels
Channel positions : L R
Sampling rate : 48.0 KHz
Resolution : 16 bits
Stream size : 61.3 MiB (9%)
Title : English
Language : English

Notes : Convert to DVD with Nero

related torrents

Torrent name

health leech seeds Size
 

comments (0)

Main Menu