Drama

The Boy in the Striped Pyjamas 2008 DVDRIP XviD ZEKTORM

  • Download 5x Faster
  • Download torrent
  • Direct Download
  • Rate this torrent +  |  -
The Boy in the Striped Pyjamas 2008 DVDRIP XviD ZEKTORM

Anonymous and Free Direct Download 300GB+


Torrent info

Name:The Boy in the Striped Pyjamas 2008 DVDRIP XviD ZEKTORM

Total Size: 745.30 MB

Magnet: Magnet Link

Seeds: 0

Leechers: 0

Stream: Watch Online @ Movie4u

Last Updated: 2010-05-02 00:32:33 (Update Now)

Torrent added: 2009-09-02 21:02:38



VPN For Torrents

Torrent Files List


READ.hlp (Size: 745.30 MB) (Files: 4)

 READ.hlp

11.58 KB

 Subs

  The.Boy.in.the.Striped.Pyjamas.2008.DVDRIP.XviD-ZEKTORM.idx

425.01 KB

  The.Boy.in.the.Striped.Pyjamas.2008.DVDRIP.XviD-ZEKTORM.sub

43.86 MB

 The.Boy.in.the.Striped.Pyjamas.2008.DVDRIP.XviD-ZEKTORM.avi

701.01 MB
 

Announce URL: http://eztv.tracker.thepiratebay.org:80/announce

Torrent description

Title : The Boy in the Striped Pyjamas
Year : 2008
Genre : Drama | War
iMDB Rate : User Rating: 7.9/10 2,556 votes
iMDB URL : http://www.imdb.com/title/tt0914798/
Awards : 2 wins & 2 nominations

Complete name : The.Boy.in.the.Striped.Pyjamas.2008.DVDRIP.XviD-ZEKTORM.avi
Format : AVI
File size : 701 MiB
Duration : 1h 30mn
Overall bit rate : 1083 Kbps
Subtitles : English, Spanish, French, Dutch, Svenska, Arabic
Norsk, Dansk, Finnish, Portuguese, Hindi, Islenska (Format: VobSub)
Source : DVD PAL

Video
Format : MPEG-4 Visual
Format profile : Streaming [email protected]
Codec ID : DX50
Codec ID/Hint : DivX 5
Duration : 1h 30mn
Bit rate : 963 Kbps
Width : 720 pixels
Height : 384 pixels
Display aspect ratio : 1.875
Frame rate : 25.000 fps
Resolution : 24 bits
Colorimetry : 4:2:0
Scan type : Progressive
Bits/(Pixel*Frame) : 0.139
Stream size : 624 MiB (89%)
Writing library : XviD 1.2.0.dev47 (UTC 2006-11-01)

Audio
Format : MPEG Audio
Format version : Version 1
Format profile : Layer 3
Codec ID : 55
Codec ID/Hint : MP3
Duration : 1h 30mn
Bit rate mode : Constant
Bit rate : 112 Kbps
Minimum bit rate : 112 Kbps
Channel(s) : 2 channels
Sampling rate : 44.1 KHz
Resolution : 16 bits
Stream size : 72.5 MiB (10%)
Writing library : LAME3.97
Encoding settings : CBR

related torrents

Torrent name

health leech seeds Size
 


comments (0)

Main Menu