Drama

The Wrestler 2008 DVDrip oddball ENG

  • Download 5x Faster
  • Download torrent
  • Direct Download
  • Rate this torrent +  |  -
The Wrestler 2008 DVDrip oddball ENG

Free and Direct Download with Usenet.nl 300GB+ free


Torrent info

Name:The Wrestler 2008 DVDrip oddball ENG

Total Size: 1.17 GB

Magnet: Magnet Link

Seeds: 4

Leechers: 3

Stream: Watch Online @ Movie4u

Last Updated: 2010-09-22 08:11:38 (Update Now)

Torrent added: 2009-09-02 20:58:42





Torrent Files List


Cover.jpg (Size: 1.17 GB) (Files: 3)

 Cover.jpg

3.46 KB

 Reed Me .rtf

0.20 KB

 The Wrestler - 2008 DVDrip oddball.avi

1.17 GB
 

Announce URL: http://tracker.thepiratebay.org/announce

Torrent description

The Wrestler is a 2008 film directed by Darren Aronofsky, written by Robert D. Siegel, and starring Mickey Rourke, Marisa Tomei, Evan Rachel Wood, and Ernest Miller. Production began in January 2008, and the film premiered at the 2008 Venice Film Festival in August, winning the Golden Lion Award. Fox Searchlight acquired rights to distribute the film in the U.S. it was released in a limited capacity on December 17, 2008 and was released nationwide on January 23, 2009.

Screen Shots


The Wrestler   2008 DVDrip oddball ENG preview 0 `

The Wrestler   2008 DVDrip oddball ENG preview 1 `

The Wrestler   2008 DVDrip oddball ENG preview 2 `

The Wrestler   2008 DVDrip oddball ENG preview 3 `

The Wrestler   2008 DVDrip oddball ENG preview 4
` Actor .......................... Role `
Marisa Tomei ................... Cassidy

Evan Rachel Wood ............... Stephanie

Mark Margolis .................. Lenny

Todd Barry ..................... Wayne

Wass Stevens ................... Nick Volpe

Judah Friedlander .............. Scott Brumberg

Ernest Miller .................. The Ayatollah

Dylan Keith Summers ............ Necro Butcher (as Dylan Summers)

Tommy Farra .................... Tommy Rotten

Mike Miller .................... Lex Lethal

Marcia Jean Kurtz .............. Admissions Desk Woman

John D'Leo ..................... Adam

Ajay Naidu ..................... Medic

Gregg Bello .................... JAPW Promoter Larry Cohen `
General
Complete name : The Wrestler - 2008
Format : AVI
Format/Info : Audio Video Interleave
File size : 1.17 GiB
Duration : 1h 44mn
Overall bit rate : 1 603 Kbps

Video
Format : MPEG-4 Visual
Format profile : Streaming [email protected]
Format settings, BVOP : Yes
Format settings, QPel : No
Format settings, GMC : No warppoints
Format settings, Matrix : Default
Muxing mode : Packed bitstream
Codec ID : XVID
Codec ID/Hint : XviD
Duration : 1h 44mn
Bit rate : 1 399 Kbps
Width : 1 024 pixels
Height : 582 pixels
Display aspect ratio : 16/9
Frame rate : 29.970 fps
Resolution : 24 bits
Colorimetry : 4:2:0
Scan type : Progressive
Bits/(Pixel*Frame) : 0.078
Stream size : 1.02 GiB (87%)
Writing library : XviD 1.2.1 (UTC 2008-12-04)

Audio
Format : MPEG Audio
Format version : Version 1
Format profile : Layer 3
Codec ID : 55
Codec ID/Hint : MP3
Duration : 1h 44mn
Bit rate mode : Constant
Bit rate : 192 Kbps
Channel(s) : 2 channels
Sampling rate : 44.1 KHz
Resolution : 16 bits
Video delay : 26ms
Stream size : 144 MiB (12%)
Alignment : Split accross interleaves
Interleave, duration : 33 ms (1.00 video frame)
Title : Audio Stream ` Please seed after downloading



related torrents

Torrent name

health leech seeds Size
 

comments (0)

Main Menu