Drama

The Wackness 2008 DVDRIP XviD ZEKTORM

  • Download 5x Faster
  • Download torrent
  • Direct Download
  • Rate this torrent +  |  -
The Wackness 2008 DVDRIP XviD ZEKTORM

Anonymous and Direct Download 300GB+ free


Torrent info

Name:The Wackness 2008 DVDRIP XviD ZEKTORM

Total Size: 716.60 MB

Magnet: Magnet Link

Seeds: 0

Leechers: 0

Stream: Watch Online @ Movie4u

Last Updated: 2010-09-18 21:49:37 (Update Now)

Torrent added: 2009-09-02 20:51:33




Torrent Files List


READ.hlp (Size: 716.60 MB) (Files: 4)

 READ.hlp

2.18 KB

 Subs

  The Wackness.2008.DVDRIP.XviD-ZEKTORM.idx

160.98 KB

  The Wackness.2008.DVDRIP.XviD-ZEKTORM.sub

15.32 MB

 The Wackness.2008.DVDRIP.XviD-ZEKTORM.avi

701.12 MB
 

Announce URL: http://eztv.tracker.thepiratebay.org:80/announce

Torrent description

Title : The Wackness
Year : 2008
Genre : Comedy | Drama
iMDB Rate : User Rating: 7.3/10 3,714 votes
iMDB URL : http://www.imdb.com/title/tt1082886/
Awards : 1 win & 2 nominations

Complete name : The Wackness.2008.DVDRIP.XviD-ZEKTORM.avi
Format : AVI
Format/Info : Audio Video Interleave
File size : 701 MiB
Duration : 1h 39mn
Overall bit rate : 990 Kbps
Subtitles : French, Spanish (Format: VobSub)
Source : DVD NTSC

Video
Format : MPEG-4 Visual
Format profile : Streaming [email protected]
Codec ID : DX50
Codec ID/Hint : DivX 5
Duration : 1h 39mn
Bit rate : 871 Kbps
Width : 720 pixels
Height : 320 pixels
Display aspect ratio : 2.25
Frame rate : 23.976 fps
Resolution : 24 bits
Colorimetry : 4:2:0
Scan type : Progressive
Bits/(Pixel*Frame) : 0.158
Stream size : 617 MiB (88%)
Writing library : XviD 1.2.0.

Audio
Format : MPEG Audio
Format version : Version 1
Format profile : Layer 3
Codec ID : 55
Codec ID/Hint : MP3
Duration : 1h 39mn
Bit rate mode : Constant
Bit rate : 112 Kbps
Minimum bit rate : 112 Kbps
Channel(s) : 2 channels
Sampling rate : 44.1 KHz
Resolution : 16 bits
Stream size : 79.3 MiB (11%)
Writing library : LAME3.97
Encoding settings : CBR

related torrents

Torrent name

health leech seeds Size
 


comments (0)

Main Menu