Drama

The Sunchaser (1996) (DVDrip English, opt French Subs)

  • Download 5x Faster
  • Download torrent
  • Direct Download
  • Rate this torrent +  |  -
The Sunchaser (1996) (DVDrip English, opt French Subs)

Free and Direct Download with Usenet.nl 300GB+ free


Torrent info

Name:The Sunchaser (1996) (DVDrip English, opt French Subs)

Total Size: 696.40 MB

Magnet: Magnet Link

Seeds: 5

Leechers: 1

Stream: Watch Online @ Movie4u

Last Updated: 2015-09-30 05:23:37 (Update Now)

Torrent added: 2009-09-02 20:38:20





Torrent Files List


Info about this release.txt (Size: 696.40 MB) (Files: 4)

 Info about this release.txt

4.79 KB

 Notes on subtitle files.txt

1.68 KB

 Optional French subtitles.rar

779.33 KB

 The Sunchaser (1996) Woody Harrelson (DVDrip,opt.FrSubs)_Kuth.avi

695.63 MB
 

tracker

leech seeds
 

Torrent description

The Sunchaser (1996)
Optional French subtitles in separate idx/sub files.

With Woody Harrelson, Jon Seda and Anne Bancroft

Deeply touching story of a young native American (Seda) who has turned criminal and is dying of cancer. He kidnaps his doctor (Harrelson) to be taken back to the promised land of his forefathers to find eternal healing. During this action-filled road movie, Harrelson undergoes a transformation with some help from Ann Bancroft (now deceased) as a colourful New Age freak.

It is a scandal that this fantastic film has not been released on DVD in the U.S., nor is it available in northern Europe from CDON dot com. I was therefore very excited when I came across this presumably non-existant DVD in a French edition with the original English soundtrack intact.

Widescreen 704x272 2-pass, great stereo AC-3
Burn tested, runs well in both my standalone DivX players.


Format/Info : Audio Video Interleave
File size : 696 MiB
Duration : 1h 57mn
Overal bit rate : 829 Kbps

Video
Format : MPEG-4 Visual
Format profile : Streaming [email protected]
Format settings, BVOP : Yes
Format settings, QPel : No
Format settings, GMC : No warppoints
Format settings, Matrix : Default
Muxing mode : Packet Bitstream
Codec ID : XVID
Codec ID/Hint : XviD
Duration : 1h 57mn
Bit rate : 691 Kbps
Width : 704 pixels
Height : 272 pixels
Display aspect ratio : 2.588
Frame rate : 25.000 fps
Resolution : 8 bits
Colorimetry : 4:2:0
Scan type : Progressive
Bits/(Pixel*Frame) : 0.144
Stream size : 580 MiB
Writing library : XviD 1.2.0.dev47 (UTC 2006-11-01)

Audio
Format : MPEG Audio
Format version : Version 1
Format profile : Layer 3
Codec ID : 55
Codec ID/Hint : MP3
Duration : 1h 57mn
Bit rate mode : Constant
Bit rate : 128 Kbps
Minimum bit rate : 128 Kbps
Channel(s) : 2 channels
Sampling rate : 48.0 KHz
Resolution : 16 bits
Stream size : 107 MiB
Writing library : LAME3.97
Encoding settings : CBR

Source: PAL retail (note that PAL/NTSC give no problems for avi files)

Thanks Kuthumi!

Be a good sport and seed!

related torrents

Torrent name

health leech seeds Size
 

comments (0)

Main Menu