Drama

The Soloist[2009]DvDrip LW

  • Download 5x Faster
  • Download torrent
  • Direct Download
  • Rate this torrent +  |  -
The Soloist[2009]DvDrip LW

Free and Direct Download with Usenet 300GB+ free


Torrent info

Name:The Soloist[2009]DvDrip LW

Total Size: 701.87 MB

Magnet: Magnet Link

Seeds: 19

Leechers: 4

Stream: Watch Online @ Movie4u

Last Updated: 2011-01-08 15:58:59 (Update Now)

Torrent added: 2009-09-02 20:34:26




Torrent Files List


Covers (Size: 701.87 MB) (Files: 7)

 Covers

  Cover.jpg

122.48 KB

  DvD Cover.jpg

60.95 KB

 Info

  Movie Info.nfo

4.10 KB

  Movie Info.txt

2.94 KB

 Movie

  The Soloist[2009]DvDrip-LW.avi

701.69 MB

 Trackers

  Torrent_downloaded_from_Demonoid.com.txt

0.05 KB

  tracked_by_h33t_com.txt

0.02 KB
 

Announce URL: http://bit-byte.org/announce.php

Torrent description

ßßßßßßßßßßßßßßßßßßßßßßßßßßßßßßßßßßßßßßßßßßßßßßßßßßßßßßßßßßßßßßßßßßßßßß

Û°°°°°°°°°°°°°°°°°°°°°°°°°°°°Û
ÛÛ The Soloist[2009]DvDrip-LW ÛÛ
Û°°°°°°°°°°°°°°°°°°°°°°°°°°°°Û

File Name : The Soloist[2009]DvDrip-LW
Type : Movie
Format : AVI
File Size : 701 Mb
Duration : 01:54:32
Language : English
Source : DvD
Subtitles : None
Genre : Biography | Drama | Music
IMDB Link : http://www.imdb.com/title/tt0821642/
IMDB Rating : 7.2/10
IMDB Votes : 3,130 Votes
ÜÜÜÜÜÜÜÜÜÜÜÜÜÜÜÜÜÜÜÜÜÜÜÜÜÜÜÜÜÜÜÜÜÜÜÜÜÜÜÜÜÜÜÜÜÜÜÜÜÜÜÜÜÜÜÜÜÜÜÜÜÜÜÜÜÜÜÜÜÜ

Û°°°°°°°°°°°°°°°°°°°°°°°°Û
ÛÛ Video Info ÛÛ
Û°°°°°°°°°°°°°°°°°°°°°°°°Û

Format : MPEG-4 Visual
Format profile : Streaming [email protected]
Format settings, BVOP : Yes
Format settings, QPel : No
Format settings, GMC : No warppoints
Format settings, Matrix : Default (H.263)
Muxing mode : Packed bitstream
Codec ID : XVID
Codec ID/Hint : XviD
Duration : 1h 54mn
Bit rate : 743 Kbps
Width : 672 pixels
Height : 288 pixels
Display aspect ratio : 2.35
Frame rate : 23.976 fps
Resolution : 24 bits
Colorimetry : 4:2:0
Scan type : Progressive
Bits/(Pixel*Frame) : 0.160
Stream size : 608 MiB (87%)
Writing library : XviD 1.2.1
ÜÜÜÜÜÜÜÜÜÜÜÜÜÜÜÜÜÜÜÜÜÜÜÜÜÜÜÜÜÜÜÜÜÜÜÜÜÜÜÜÜÜÜÜÜÜÜÜÜÜÜÜÜÜÜÜÜÜÜÜÜÜÜÜÜÜÜÜÜÜ

Û°°°°°°°°°°°°°°°°°°°°°°°°Û
ÛÛ Sound Info ÛÛ
Û°°°°°°°°°°°°°°°°°°°°°°°°Û

Format : MPEG Audio
Format version : Version 1
Format profile : Layer 3
Codec ID : 55
Codec ID/Hint : MP3
Duration : 1h 54mn
Bit rate mode : Variable
Bit rate : 102 Kbps
Channel(s) : 2 channels
Sampling rate : 44.1 KHz
Resolution : 16 bits
Stream size : 83.1 MiB (12%)
Alignment : Aligned on interleaves
Interleave, duration : 26 ms (0.63 video frame)
Interleave, preload duration : 392 ms
ÜÜÜÜÜÜÜÜÜÜÜÜÜÜÜÜÜÜÜÜÜÜÜÜÜÜÜÜÜÜÜÜÜÜÜÜÜÜÜÜÜÜÜÜÜÜÜÜÜÜÜÜÜÜÜÜÜÜÜÜÜÜÜÜÜÜÜÜÜÜ

Û°°°°°°°°°°°°°°°°°°°°°°°°Û
ÛÛ Plot ÛÛ
Û°°°°°°°°°°°°°°°°°°°°°°°°Û

This true-life drama tells the poignant tale of
Los Angeles newspaper reporter Steve Lopez (Robert
Downey Jr.), who discovers brilliant street musician
Nathaniel Ayers (Jamie Foxx), and the unique friendship
that transforms both their lives. In helping his
new friend deal with his demons, Steve ends up
battling with his own. Joe Wright directs this inspiring
drama based on the bestselling book by the real Lopez.

Starring: Robert Downey Jr., Jamie Foxx

Director: Joe Wright
ÜÜÜÜÜÜÜÜÜÜÜÜÜÜÜÜÜÜÜÜÜÜÜÜÜÜÜÜÜÜÜÜÜÜÜÜÜÜÜÜÜÜÜÜÜÜÜÜÜÜÜÜÜÜÜÜÜÜÜÜÜÜÜÜÜÜÜÜÜÜ

related torrents

Torrent name

health leech seeds Size
 

comments (0)

Main Menu