Drama

The Soloist AC3 5,1 DVDRip[Eng]2009

  • Download 5x Faster
  • Download torrent
  • Direct Download
  • Rate this torrent +  |  -
The Soloist AC3 5,1 DVDRip[Eng]2009

Anonymous and Free Direct Download 300GB+


Torrent info

Name:The Soloist AC3 5,1 DVDRip[Eng]2009

Total Size: 1.36 GB

Magnet: Magnet Link

Seeds: 7

Leechers: 2

Stream: Watch Online @ Movie4u

Last Updated: 2010-08-19 08:07:49 (Update Now)

Torrent added: 2009-09-02 20:34:15



VPN For Torrents

Torrent Files List


The Soloist-AC3-5,1-DVDRip[Eng]2009-CD1.jpg (Size: 1.36 GB) (Files: 5)

 The Soloist-AC3-5,1-DVDRip[Eng]2009-CD1.jpg

255.87 KB

 The Soloist-AC3-5,1-DVDRip[Eng]2009-Front.jpg

1.63 MB

 The Soloist-AC3-5,1-DVDRip[Eng]2009.avi

1.36 GB

 The Soloist-AC3-5,1-DVDRip[Eng]2009.txt

3.04 KB

 Torrent downloaded from Demonoid.com.txt

0.05 KB
 

Announce URL: http://inferno.demonoid.com:3417/announce

Torrent description

http://www.imdb.com/title/tt0821642/

User Rating:7.2/10 - 3,130 votes

Biography,Drama,Music

Director:Joe Wright

Cast:Jamie Foxx/Robert Downey Jr./Meggan Anderson/Halbert Bernal, and others.

Plot:
In 2005, the only thing hurting Los Angeles Times columnist Steve Lopez more than his face from a recent bike accident was his pressing need
for story ideas. That is when he discovers Nathaniel Ayers, a mentally ill, homeless street musician who possesses extraordinary talent, even
through his half-broken instruments. Inspired by his story, Lopez writes an acclaimed series of articles about Ayers and attempts to do more
to help both him, and the rest of the underclass of LA have a better life. However, Lopez's good intentions run headlong in the hard realities
of the strength of Ayers' personal demons and the larger social injustices facing the homeless. Regardless, Lopez and Ayers must find away to
conquer their deepest anxieties and frustrations to hope for a brighter future for both of them...

Info:

Covers included.

General
Complete name : The Soloist-AC3-5,1-DVDRip[Eng]2009.avi
Format : AVI
Format/Info : Audio Video Interleave
File size : 1.36 GiB
Duration : 1h 57mn
Overall bit rate : 1 667 Kbps
Writing application : VirtualDubMod 1.5.4.1 (build 2178/release)
Writing library : VirtualDubMod build 2178/release

Video
Format : MPEG-4 Visual
Format profile : [email protected]
Format settings, BVOP : No
Format settings, QPel : No
Format settings, GMC : No warppoints
Format settings, Matrix : Default
Codec ID : XVID
Codec ID/Hint : XviD
Duration : 1h 57mn
Bit rate : 1 209 Kbps
Width : 640 pixels
Height : 272 pixels
Display aspect ratio : 2.35
Frame rate : 25.000 fps
Resolution : 24 bits
Colorimetry : 4:2:0
Scan type : Progressive
Bits/(Pixel*Frame) : 0.278
Stream size : 1 012 MiB (73%)
Writing library : XviD 1.1.2 (UTC 2006-11-01)

Audio
Format : AC-3
Format/Info : Audio Coding 3
Codec ID : 2000
Duration : 1h 57mn
Bit rate mode : Constant
Bit rate : 448 Kbps
Channel(s) : 6 channels
Channel positions : Front: L C R, Surround: L R, LFE
Sampling rate : 48.0 KHz
Stream size : 375 MiB (27%)
Alignment : Split accross interleaves
Interleave, duration : 40 ms (1.00 video frame)
Interleave, preload duration : 500 ms

Enjoy...

related torrents

Torrent name

health leech seeds Size
 


comments (0)

Main Menu