Horror

See No Evil[2006]DvDrip LW [Bit Byte]

  • Download 5x Faster
  • Download torrent
  • Direct Download
  • Rate this torrent +  |  -
See No Evil[2006]DvDrip LW [Bit Byte]

Anonymous and Free Direct Download 300GB+


Torrent info

Name:See No Evil[2006]DvDrip LW [Bit Byte]

Total Size: 702.34 MB

Magnet: Magnet Link

Seeds: 0

Leechers: 0

Stream: Watch Online @ Movie4u

Last Updated: 2011-09-13 04:41:24 (Update Now)

Torrent added: 2009-09-02 20:33:50



VPN For Torrents

Torrent Files List


Cover (Size: 702.34 MB) (Files: 6)

 Cover

  Cover.jpg

56.58 KB

 Info

  Movie Info.nfo

4.21 KB

  Movie Info.txt

3.05 KB

 Movie

  See No Evil[2006]DvDrip-LW.avi

702.28 MB

 Trackers

  Torrent_downloaded_from_Demonoid.com.txt

0.05 KB

  tracked_by_h33t_com.txt

0.02 KB
 

Announce URL: http://tracker.bit-byte.org/announce.php

Torrent description

) (`-. (` .-') /` ) (`-.
( OO ). `.( OO ),' ( OO ).
(_/. \_)-.-'),-----. ,--. ,--./ .--. .-'),-----.(_/. \_)-.
`.' ( OO' .-. '| |.-') | | | ( OO' .-. ' `.' /
/Y | | | || | OO )| | | |,/ | | | | /
\_) | || || |`-' || |.'.| |_)_) | || | |
.' \_) | | | (| '---.'| | | | | | .' \_)
/ .'. `' '-' '| | | ,'. | `' '-' '/ .'.
'--' '--' `-----' `------' '--' '--' `-----''--' '--'


ßßßßßßßßßßßßßßßßßßßßßßßßßßßßßßßßßßßßßßßßßßßßßßßßßßßßßßßßßßßßßßßßßßßßßß

Û°°°°°°°°°°°°°°°°°°°°°°°°°°°°Û
ÛÛ See No Evil[2006]DvDrip-LW ÛÛ
Û°°°°°°°°°°°°°°°°°°°°°°°°°°°°Û

File Name : See No Evil[2006]DvDrip-LW
Type : Movie
Format : AVI
File Size : 702 MB
Duration : 01:24:05
Language : English
Source : DvD
Subtitles : None
Genre : Action | Horror | Mystery | Thriller
IMDB Link : http://www.imdb.com/title/tt0437179/
IMDB Rating : 5.0/10
IMDB Votes : 8,988 Votes
ÜÜÜÜÜÜÜÜÜÜÜÜÜÜÜÜÜÜÜÜÜÜÜÜÜÜÜÜÜÜÜÜÜÜÜÜÜÜÜÜÜÜÜÜÜÜÜÜÜÜÜÜÜÜÜÜÜÜÜÜÜÜÜÜÜÜÜÜÜÜ

Û°°°°°°°°°°°°°°°°°°°°°°°°Û
ÛÛ Video Info ÛÛ
Û°°°°°°°°°°°°°°°°°°°°°°°°Û

Format : MPEG-4 Visual
Format profile : Streaming Video@L1
Format settings, BVOP : Yes
Format settings, QPel : No
Format settings, GMC : No warppoints
Format settings, Matrix : Custom
Codec ID : XVID
Codec ID/Hint : XviD
Duration : 1h 24mn
Bit rate : 1 049 Kbps
Width : 720 pixels
Height : 416 pixels
Display aspect ratio : 16/9
Frame rate : 23.976 fps
Resolution : 24 bits
Colorimetry : 4:2:0
Scan type : Progressive
Bits/(Pixel*Frame) : 0.146
Stream size : 631 MiB (90%)
Writing library : XviD 1.2.1
ÜÜÜÜÜÜÜÜÜÜÜÜÜÜÜÜÜÜÜÜÜÜÜÜÜÜÜÜÜÜÜÜÜÜÜÜÜÜÜÜÜÜÜÜÜÜÜÜÜÜÜÜÜÜÜÜÜÜÜÜÜÜÜÜÜÜÜÜÜÜ

Û°°°°°°°°°°°°°°°°°°°°°°°°Û
ÛÛ Sound Info ÛÛ
Û°°°°°°°°°°°°°°°°°°°°°°°°Û

Format : MPEG Audio
Format version : Version 1
Format profile : Layer 3
Codec ID : 55
Codec ID/Hint : MP3
Duration : 1h 24mn
Bit rate mode : Constant
Bit rate : 112 Kbps
Minimum bit rate : 112 Kbps
Channel(s) : 2 channels
Sampling rate : 44.1 KHz
Resolution : 16 bits
Stream size : 67.3 MiB (10%)
Alignment : Split accross interleaves
Interleave, duration : 84 ms (2.00 video frames)
Interleave, preload duration : 500 ms
Writing library : LAME3.98r
Encoding settings : CBR
ÜÜÜÜÜÜÜÜÜÜÜÜÜÜÜÜÜÜÜÜÜÜÜÜÜÜÜÜÜÜÜÜÜÜÜÜÜÜÜÜÜÜÜÜÜÜÜÜÜÜÜÜÜÜÜÜÜÜÜÜÜÜÜÜÜÜÜÜÜÜ

Û°°°°°°°°°°°°°°°°°°°°°°°°Û
ÛÛ Plot ÛÛ
Û°°°°°°°°°°°°°°°°°°°°°°°°Û

Eight juvenile delinquents find themselves at the
mercy of a hulking psychopathic killer when they're
ordered to clean the abandoned Blackwell Hotel as
an act of community service. The madman (played by
World Wrestling Entertainment superstar Kane) has
a steel plate in his head and murder on his mind,
but can the veteran police officer (Matthew Okine)
who put a bullet in his brain years before help the
scrappy teens save one of their own?

Starring: Kane, Christina Vidal

Director: Gregory Dark
ÜÜÜÜÜÜÜÜÜÜÜÜÜÜÜÜÜÜÜÜÜÜÜÜÜÜÜÜÜÜÜÜÜÜÜÜÜÜÜÜÜÜÜÜÜÜÜÜÜÜÜÜÜÜÜÜÜÜÜÜÜÜÜÜÜÜÜÜÜÜ

related torrents

Torrent name

health leech seeds Size
 


comments (0)

Main Menu