Drama

The Rainmaker 1997 DVDRip XviD [

  • Download 5x Faster
  • Download torrent
  • Direct Download
  • Rate this torrent +  |  -
The Rainmaker 1997 DVDRip XviD [

Free and Direct Download with Usenet 300GB+ free


Torrent info

Name:The Rainmaker 1997 DVDRip XviD [

Total Size: 0.99 GB

Magnet: Magnet Link

Seeds: 0

Leechers: 0

Stream: Watch Online @ Movie4u

Last Updated: 2015-05-24 05:34:18 (Update Now)

Torrent added: 2009-09-02 20:17:03




Torrent Files List


The Rainmaker.nfo (Size: 0.99 GB) (Files: 73)

 The Rainmaker.nfo

2.11 KB

 The Rainmaker.part01.rar

14.31 MB

 The Rainmaker.part02.rar

14.31 MB

 The Rainmaker.part03.rar

14.31 MB

 The Rainmaker.part04.rar

14.31 MB

 The Rainmaker.part05.rar

14.31 MB

 The Rainmaker.part06.rar

14.31 MB

 The Rainmaker.part07.rar

14.31 MB

 The Rainmaker.part08.rar

14.31 MB

 The Rainmaker.part09.rar

14.31 MB

 The Rainmaker.part10.rar

14.31 MB

 The Rainmaker.part11.rar

14.31 MB

 The Rainmaker.part12.rar

14.31 MB

 The Rainmaker.part13.rar

14.31 MB

 The Rainmaker.part14.rar

14.31 MB

 The Rainmaker.part15.rar

14.31 MB

 The Rainmaker.part16.rar

14.31 MB

 The Rainmaker.part17.rar

14.31 MB

 The Rainmaker.part18.rar

14.31 MB

 The Rainmaker.part19.rar

14.31 MB

 The Rainmaker.part20.rar

14.31 MB

 The Rainmaker.part21.rar

14.31 MB

 The Rainmaker.part22.rar

14.31 MB

 The Rainmaker.part23.rar

14.31 MB

 The Rainmaker.part24.rar

14.31 MB

 The Rainmaker.part25.rar

14.31 MB

 The Rainmaker.part26.rar

14.31 MB

 The Rainmaker.part27.rar

14.31 MB

 The Rainmaker.part28.rar

14.31 MB

 The Rainmaker.part29.rar

14.31 MB

 The Rainmaker.part30.rar

14.31 MB

 The Rainmaker.part31.rar

14.31 MB

 The Rainmaker.part32.rar

14.31 MB

 The Rainmaker.part33.rar

14.31 MB

 The Rainmaker.part34.rar

14.31 MB

 The Rainmaker.part35.rar

14.31 MB

 The Rainmaker.part36.rar

14.31 MB

 The Rainmaker.part37.rar

14.31 MB

 The Rainmaker.part38.rar

14.31 MB

 The Rainmaker.part39.rar

14.31 MB

 The Rainmaker.part40.rar

14.31 MB

 The Rainmaker.part41.rar

14.31 MB

 The Rainmaker.part42.rar

14.31 MB

 The Rainmaker.part43.rar

14.31 MB

 The Rainmaker.part44.rar

14.31 MB

 The Rainmaker.part45.rar

14.31 MB

 The Rainmaker.part46.rar

14.31 MB

 The Rainmaker.part47.rar

14.31 MB

 The Rainmaker.part48.rar

14.31 MB

 The Rainmaker.part49.rar

14.31 MB

 The Rainmaker.part50.rar

14.31 MB

 The Rainmaker.part51.rar

14.31 MB

 The Rainmaker.part52.rar

14.31 MB

 The Rainmaker.part53.rar

14.31 MB

 The Rainmaker.part54.rar

14.31 MB

 The Rainmaker.part55.rar

14.31 MB

 The Rainmaker.part56.rar

14.31 MB

 The Rainmaker.part57.rar

14.31 MB

 The Rainmaker.part58.rar

14.31 MB

 The Rainmaker.part59.rar

14.31 MB

 The Rainmaker.part60.rar

14.31 MB

 The Rainmaker.part61.rar

14.31 MB

 The Rainmaker.part62.rar

14.31 MB

 The Rainmaker.part63.rar

14.31 MB

 The Rainmaker.part64.rar

14.31 MB

 The Rainmaker.part65.rar

14.31 MB

 The Rainmaker.part66.rar

14.31 MB

 The Rainmaker.part67.rar

14.31 MB

 The Rainmaker.part68.rar

14.31 MB

 The Rainmaker.part69.rar

14.31 MB

 The Rainmaker.part70.rar

14.31 MB

 The Rainmaker.part71.rar

9.39 MB

 The Rainmaker.sfv

6.93 KB
 

Announce URL:

Torrent description

Rudy Baylor is a jobless young attorney. However, he is also the only hope of an elderly couple whose insurance company will not pay for an operation that could save their son's life. In this judicial drama, Rudy learns to hate corporate America as he falls in love with a battered young married woman. Will he be up to the task?

Format : AVI
Format/Info : Audio Video Interleave
File size : 1 011 MiB
Duration : 2h 16mn
Overall bit rate : 1 038 Kbps
Writing application : VirtualDubMod 1.5.10.2 (build 2540/release)
Writing library : VirtualDubMod build 2540/release

Video
Format : MPEG-4 Visual
Format profile : [email protected]
Format settings, BVOP : No
Format settings, QPel : No
Format settings, GMC : No warppoints
Format settings, Matrix : Default
Codec ID : XVID
Codec ID/Hint : XviD
Duration : 2h 16mn
Bit rate : 901 Kbps
Width : 576 pixels
Height : 432 pixels
Display aspect ratio : 4/3
Frame rate : 23.976 fps
Resolution : 24 bits
Colorimetry : 4:2:0
Scan type : Progressive
Bits/(Pixel*Frame) : 0.151
Stream size : 877 MiB (87%)
Writing library : XviD 1.1.2 (UTC 2006-11-01)

Audio
Format : MPEG Audio
Format version : Version 1
Format profile : Layer 3
Codec ID : 55
Codec ID/Hint : MP3
Duration : 2h 15mn
Bit rate mode : Constant
Bit rate : 128 Kbps
Minimum bit rate : 128 Kbps
Channel(s) : 2 channels
Sampling rate : 48.0 KHz
Resolution : 16 bits
Stream size : 124 MiB (12%)
Alignment : Aligned on interleaves
Interleave, duration : 42 ms (1.00 video frame)
Interleave, preload duration : 504 ms
Writing library : LAME3.97b
Encoding settings : CBR

Link: http://www.imdb.com/title/tt0119978/

related torrents

Torrent name

health leech seeds Size
 

comments (0)

Main Menu