Drama

The Prestige 2006 BRRip 720p x264 [Blueman] mp4

  • Download 5x Faster
  • Download torrent
  • Direct Download
  • Rate this torrent +  |  -
The Prestige 2006 BRRip 720p x264 [Blueman] mp4

Anonymous and Free Direct Download


Torrent info

Name:The Prestige 2006 BRRip 720p x264 [Blueman] mp4

Total Size: 988.59 MB

Magnet: Magnet Link

Seeds: 0

Leechers: 0

Stream: Watch Online @ Movie4u

Last Updated: 0000-00-00 00:00:00 (Update Now)

Torrent added: 2009-09-02 20:10:25



VPN For Torrents

Torrent Files List


The.Prestige.2006.BRRip.720p.x264 [Blueman].mp4 (Size: 988.59 MB) (Files: 1)

 The.Prestige.2006.BRRip.720p.x264 [Blueman].mp4

988.59 MB
 

Announce URL:

Torrent description

Video
ID : 1
Format : AVC
Format/Info : Advanced Video Codec
Codec ID : avc1
Codec ID/Info : Advanced Video Coding
Duration : 2h 10mn
Bit rate mode : Variable
Bit rate : 1 024 Kbps
Maximum bit rate : 5 595 Kbps
Width : 1 280 pixels
Height : 544 pixels
Display aspect ratio : 2.35
Frame rate mode : Constant
Frame rate : 23.976 fps
Resolution : 24 bits
Colorimetry : 4:2:0
Scan type : Progressive
Bits/(Pixel*Frame) : 0.061
Stream size : 956 MiB (97%)
Writing library : x264

Audio
ID : 2
Format : AAC
Format/Info : Advanced Audio Codec
Format version : Version 4
Format profile : HE-AACv2
Duration : 2h 10mn
Bit rate mode : Variable
Bit rate : 32.4 Kbps
Maximum bit rate : 65.5 Kbps
Channel(s) : 2 channels
Sampling rate : 48.0 KHz
Resolution : 16 bits
Stream size : 30.3 MiB (3%)


The Prestige 2006 BRRip 720p x264 [Blueman] mp4 preview 0

The Prestige 2006 BRRip 720p x264 [Blueman] mp4 preview 1

The Prestige 2006 BRRip 720p x264 [Blueman] mp4 preview 2

The Prestige 2006 BRRip 720p x264 [Blueman] mp4 preview 3


The Prestige 2006 BRRip 720p x264 [Blueman] mp4 preview 4

related torrents

Torrent name

health leech seeds Size
 


comments (0)

Main Menu