Drama

The Last Time DVDRiP XViD SB0 org

  • Download 5x Faster
  • Download torrent
  • Direct Download
  • Rate this torrent +  |  -
The Last Time DVDRiP XViD SB0 org

Download FREE And Anonymously


Torrent info

Name:The Last Time DVDRiP XViD SB0 org

Total Size: 699.84 MB

Magnet: Magnet Link

Seeds: 0

Leechers: 0

Stream: Watch Full Movie @ Movie4u

Last Updated: 2011-02-16 14:00:44 (Update Now)

Torrent added: 2009-09-02 19:33:28



VPN For Torrents

Torrent Files List


seedmore.nfo (Size: 699.84 MB) (Files: 4)

 seedmore.nfo

5.03 KB

 the last time SB0 .avi

699.83 MB

 the last time SB0.nfo

5.21 KB

 the last time SB0.sfv

0.39 KB
 

Announce URL:

Torrent description

~ Seedmore ~

Hi m8! Were you thinking about joining a private tracker, well what are you waiting for!! we are a Italian Mob theme website with a new twist ;)
we are focused on fast uploads, new content, and above all: user security ;)
are you also tired of malware and Hit & Runners,:(
Are you an experienced uploader Huh, See forums for how to apply.
well what are you waiting for doors will not be open for long so start typing to join: http://tinyurl.com/seedmore NOW!!!!!!

I want to see you at Seedmore.org :)




*******************************************************************************

The Last Time DVDRiP XViD SB0

*******************************************************************************



-------------------------------------------------------------------------------

General Information

-------------------------------------------------------------------------------

Type.................: Movie

File Validation......: SFV









-------------------------------------------------------------------------------

Post Information

-------------------------------------------------------------------------------

Posted by............: SB0



-------------------------------------------------------------------------------

Release Notes

-------------------------------------------------------------------------------

General

Complete name The Last Time DVDRiP XViD SB0\the last time SB0

.avi

Format : AVI

Format/Info : Audio Video Interleave

File size : 700 MiB

Duration : 1h 32mn

Overall bit rate : 1 055 Kbps

Writing application

Encoder :SB0



Video

Format : MPEG-4 Visual

Format profile : [email protected]

Format settings, BVOP : No

Format settings, QPel : No

Format settings, GMC : No warppoints

Format settings, Matrix : Default

Codec ID : XVID

Codec ID/Hint : XviD

Duration : 1h 32mn

Bit rate : 917 Kbps

Width : 704 pixels

Height : 304 pixels

Display aspect ratio : 2.35

Frame rate : 25.000 fps

Resolution : 24 bits

Colorimetry : 4:2:0

Scan type : Progressive

Bits/(Pixel*Frame) : 0.171

Stream size : 608 MiB (87%)

Writing library : XviD 1.2.0.dev47 (UTC 2006-11-01)



Audio

Format : MPEG Audio

Format version : Version 1

Format profile : Layer 3

Codec ID : 55

Codec ID/Hint : MP3

Duration : 1h 32mn

Bit rate mode : Constant

Bit rate : 128 Kbps

Minimum bit rate : 128 Kbps

Channel(s) : 2 channels

Sampling rate : 48.0 KHz

Resolution : 16 bits

Stream size : 84.9 MiB (12%)

Alignment : Aligned on interleaves

Interleave, duration : 40 ms (1.00 video frame)

Interleave, preload duration : 504 ms

Writing library : LAME3.97

Encoding settings : CBR



Ted Ryker is the top salesman in the New York office of a business machine

company; the corporate stock lives by quarterly sales numbers, the competition

is keen, and the economy may be in a downturn. Ted's company is marking time

until a new product is ready - probably in a few months. Into the mix comes a

new hire, a callow Midwesterner named Jamie, who's come East with his fiance

Belisa. Ted's a cynic - with a failed love in his past; he's profane, he's a

lousy team player. He watches Jamie flounder, failing with presentation after

presentation. Then, Ted finds a mutual attraction to Belisa. Where can this end?



Cast

(Credited cast)



Brendan Fraser ... Jamie Bashant



Amber Valletta ... Belisa



Michael Keaton ... Ted



Neal McDonough ... Hurly

Daniel Stern ... John



Alexis Cruz



Michael Lerner ... Leguzza



William Ragsdale ... Rogers



Billy Slaughter ... Intern



David Jensen ... J.D.Wachowitz



Mike Hagerty ... Breckenridge (as Michael G. Hagerty)



David Born ... Neighbor



Allen Boudreaux ... N.Y. Executive



Toni Wynne ... Coffee girl



Felix J. Boyle ... Pitt Boss



Barbara Balentine ... Office worker



Thomas Crawford ... Sales Guru



Douglas M. Griffin

Lisa Marie Dupree ... N.Y. Model

Caroline McKinley ... Madeline

Louis Dupuy ... N. Y. Executive



Colleen Lindt ... Young Wife

George Anton ... NY Bussiness Man



Aaron Sauer ... Downtown cab driver

Kristi Chalaire ... NY Business Woman / Trade Show Visitor



Gus Lynch ... Frustrated NY Cabdriver

Elizabeth Lynch ... Office Worker

Jack Galle ... Salesman #3



Chuck Halley ... NYC Pedestrian with Cell Phone

Michael Aaron Santos ... Brad

Carol Dupuy ... N.Y. Executive

Doc Whitney ... Sales Exec

Felecia Kirkland ... Door girl

Brian Edwards ... N. Y. Executive

Don Lincoln ... NY Bussiness Man

Jon Purvis ... Business Associate

related torrents

Torrent name

health leech seeds Size
 


comments (0)

Main Menu

 

script data-cfasync="false" src="//d2ghscazvn398x.cloudfront.net/?cshgd=690275">