Action

Batman The Dark Knight 2008 TS Occor Engl Xvid mnvv2 ws

  • Download 5x Faster
  • Download torrent
  • Direct Download
  • Rate this torrent +  |  -
Batman The Dark Knight 2008 TS Occor Engl Xvid mnvv2 ws

Anonymous and Direct Download 300GB+ free


Torrent info

Name:Batman The Dark Knight 2008 TS Occor Engl Xvid mnvv2 ws

Total Size: 703.18 MB

Magnet: Magnet Link

Seeds: 0

Leechers: 0

Stream: Watch Online @ Movie4u

Last Updated: 2011-02-05 09:33:59 (Update Now)

Torrent added: 2008-08-22 12:41:17




Torrent Files List


Sample (Size: 703.18 MB) (Files: 3)

 Sample

  sample.avi

3.04 MB

 Batman.The.Dark.Knight.2008.TS-Occor.avi

700.06 MB

 Cover.jpg

77.69 KB
 

Announce URL:

Torrent description

please register at mnvv2.ws

Inhalt
Gemeinsam mit Bezirksstaatsanwalt Harvey Dent und Lieutenant James Gordon versucht der im Fledermauskost?gierende Milliard?Bruce Wayne dem Verbrechen in Gotham City Einhalt zu gebieten. Wie aus dem Nichts taucht pl?ich ein psychotischer Superverbrecher auf - der Joker. In seiner wahnhaften Vision m?e er die Stadt in Chaos und Anarchie st?n und Batman scheint der einzige, der ihn stoppen kann. Bis es zum endg?gen Show-Down kommt, wird aber viel Blut flie?n und auch Menschen die Bruce Wayne nahe stehen, k?en Opfer werden.

Source : STGTS
Format : AVI
Format/Info: Audio Video Interleave
Dateigr?: 700 MiB
Duration : 2h 24min
Gesamte Bitrate: 678 Kbps
Verwendetes Programm : VirtualDubMod 1.5.4.1 (build 2178/release)
verwendete Encoder-Bibliothek: VirtualDubMod build 2178/release

Video
Format : MPEG-4 Visual
Format profile : Streaming [email protected]
Format settings, BVOP: Ja
Format settings, QPel: Nein
Format settings, GMC : No warppoints
Format settings, Matrix: Custom
Codec ID : XVID
Codec ID/Hint: XviD
Duration : 2h 24min
Bitrate: 445 Kbps
Breite : 608 Pixel
H?: 256 Pixel
Bildseitenverh?nis : 2.35
Bildwiederholungsrate: 29.970 FPS
Aufl?g: 8 bits
Colorimetry: 4:2:0
Scan type: Progressive
Bits/(Pixel*Frame) : 0.095
Stream size: 460 MiB (66)
verwendete Encoder-Bibliothek: XviD 1.2.0.dev47 (UTC 2006-11-01)

Audio
Format : MPEG Audio
Format version : Version 1
Format profile : Layer 3
Codec ID : 55
Codec ID/Hint: MP3
Duration : 2h 24min
Bitraten-Modus : Constant
Bitrate: 224 Kbps
Kan? : 2 Kan?
Samplingrate : 48.0 KHz
Aufl?g: 16 bits
Stream size: 231 MiB (33)

..:: RELEASE IST ENGLISCH ::..

related torrents

Torrent name

health leech seeds Size
 


comments (0)

Main Menu