Drama

THE KRAYS A H 264 RIP BY KIDZCORNER&J T R

  • Download 5x Faster
  • Download torrent
  • Direct Download
  • Rate this torrent +  |  -
THE KRAYS A H 264 RIP BY KIDZCORNER&J T R

Anonymous and Free Direct Download 300GB+


Torrent info

Name:THE KRAYS A H 264 RIP BY KIDZCORNER&J T R

Total Size: 897.83 MB

Magnet: Magnet Link

Seeds: 0

Leechers: 0

Stream: Watch Online @ Movie4u

Last Updated: 2010-12-25 04:30:23 (Update Now)

Torrent added: 2009-09-02 19:26:51



VPN For Torrents

Torrent Files List


662766_DV_L_B.JPG (Size: 897.83 MB) (Files: 5)

 662766_DV_L_B.JPG

26.45 KB

 662766_DV_L_F.JPG

14.78 KB

 krays.mp4

897.79 MB

 Torrent downloaded from Demonoid.com.txt

0.05 KB

 Tracked by moviesb4time.biz.txt

1.35 KB
 

Announce URL: http://tracker.torrentbox.com:2710/announce

Torrent description

Ronald and Reggie Kray were Britain's most notorious gang leaders. Their reign over London's East End was a sinister story of extortion, fraud and murder which remained untold for years as a result of their power.

Gary and Martin Kemp (Spandau Ballet) star in this brutally stark account of the absolute rulers of London's East End underworld through their reign of terror in the 1950's and 1960's.

General
Complete name : C:\Users\joker\Documents\THE KRAYS-A H.264 RIP BY KIDZCORNER&J.T.R\krays.mp4
Format : MPEG-4
Format profile : Base Media / Version 2
Codec ID : mp42
File size : 898 MiB
Duration : 1h 54mn
Overall bit rate : 1 096 Kbps
Encoded date : UTC 2009-02-15 15:30:56
Tagged date : UTC 2009-02-15 22:11:31
Writing application : HandBrake 0.9.3 2008112300

Video
Format : AVC
Format/Info : Advanced Video Codec
Format profile : [email protected]
Format settings, CABAC : Yes
Format settings, ReFrames : 3 frames
Codec ID : avc1
Codec ID/Info : Advanced Video Coding
Duration : 1h 54mn
Bit rate mode : Variable
Bit rate : 935 Kbps
Width : 716 pixels
Height : 566 pixels
Display aspect ratio : 4/3
Frame rate mode : Variable
Frame rate : 25.000 fps
Minimum frame rate : 12.500 fps
Maximum frame rate : 25.000 fps
Resolution : 24 bits
Colorimetry : 4:2:0
Scan type : Progressive
Bits/(Pixel*Frame) : 0.092
Stream size : 764 MiB (85%)
Writing library : x264 core 65
Encoding settings : cabac=1 / ref=2 / deblock=1:-2:-1 / analyse=0x1:0x131 / me=umh / subme=9 / psy_rd=1.0:0.0 / mixed_ref=1 / me_range=16 / chroma_me=1 / trellis=0 / 8x8dct=0 / cqm=0 / deadzone=21,11 / chroma_qp_offset=-2 / threads=3 / nr=0 / decimate=1 / mbaff=0 / bframes=3 / b_pyramid=1 / b_adapt=1 / b_bias=0 / direct=3 / wpredb=1 / keyint=250 / keyint_min=25 / scenecut=40(pre) / rc=abr / bitrate=935 / ratetol=1.0 / qcomp=0.60 / qpmin=10 / qpmax=51 / qpstep=4 / ip_ratio=1.40 / pb_ratio=1.30 / aq=1:1.00
Encoded date : UTC 2009-02-15 15:30:56
Tagged date : UTC 2009-02-15 22:11:31

Audio
Format : AAC
Format/Info : Advanced Audio Codec
Format version : Version 4
Format profile : LC
Format settings, SBR : No
Codec ID : 40
Duration : 1h 54mn
Bit rate mode : Variable
Bit rate : 160 Kbps
Maximum bit rate : 205 Kbps
Channel(s) : 2 channels
Channel positions : L R
Sampling rate : 48.0 KHz
Resolution : 16 bits
Stream size : 131 MiB (15%)
Language : English
Encoded date : UTC 2009-02-15 15:30:56
Tagged date : UTC 2009-02-15 22:11:27

related torrents

Torrent name

health leech seeds Size
 


comments (0)

Main Menu