Drama

The Basketball Diaries [1995] DVDrip [Gopo]

  • Download 5x Faster
  • Download torrent
  • Direct Download
  • Rate this torrent +  |  -
The Basketball Diaries [1995] DVDrip [Gopo]

Anonymous and Free Direct Download


Torrent info

Name:The Basketball Diaries [1995] DVDrip [Gopo]

Total Size: 700.52 MB

Magnet: Magnet Link

Seeds: 0

Leechers: 0

Stream: Watch Online @ Movie4u

Last Updated: 2010-12-28 14:27:07 (Update Now)

Torrent added: 2009-09-02 18:10:25



VPN For Torrents

Torrent Files List


The.Basketball Diaries.[1995].DVDrip.[Gopo].avi (Size: 700.52 MB) (Files: 3)

 The.Basketball Diaries.[1995].DVDrip.[Gopo].avi

700.52 MB

 The.Basketball Diaries.[1995].DVDrip.[Gopo].nfo

1.76 KB

 Torrent downloaded from Demonoid.com.txt

0.05 KB
 

Announce URL:

Torrent description

D:\The.Basketball Diaries.[1995].DVDrip.[Gopo]\The.Basketball Diaries.[1995].DVDrip.[Gopo].avi
General
Complete name : D:\The.Basketball Diaries.[1995].DVDrip.[Gopo]\The.Basketball Diaries.[1995].DVDrip.[Gopo].avi
Format : AVI
Format/Info : Audio Video Interleave
File size : 701 MiB
Duration : 1h 42mn
Overall bit rate : 959 Kbps
Writing application : VirtualDubMod 1.5.4.1 (build 2178/release)
Writing library : VirtualDubMod build 2178/release
Video
Format : MPEG-4 Visual
Format settings, BVOP : Yes
Format settings, QPel : No
Format settings, GMC : No warppoints
Format settings, Matrix : Default
Muxing mode : Packed bitstream
Codec ID : DX50
Codec ID/Hint : DivX 5
Duration : 1h 42mn
Bit rate : 836 Kbps
Width : 528 pixels
Height : 288 pixels
Display aspect ratio : 16/9
Frame rate : 23.976 fps
Resolution : 24 bits
Colorimetry : 4:2:0
Scan type : Progressive
Bits/(Pixel*Frame) : 0.229
Stream size : 610 MiB (87%)
Writing library : DivX 2816
Audio
Format : MPEG Audio
Format version : Version 1
Format profile : Layer 3
Codec ID : 55
Codec ID/Hint : MP3
Duration : 1h 42mn
Bit rate mode : Variable
Bit rate : 111 Kbps
Minimum bit rate : 128 Kbps
Channel(s) : 2 channels
Sampling rate : 48.0 KHz
Resolution : 16 bits
Stream size : 80.9 MiB (12%)
Alignment : Aligned on interleaves
Interleave, duration : 24 ms (0.58 video frame)
Interleave, preload duration : 166 ms
Writing library : LAME3.98r
Encoding settings : ABR

PLOT:Film adaptation of street tough Jim Carroll's epistle about his kaleidoscopic free fall into the harrowing world of drug addiction. As a member of a seemingly unbeatable high school basketball squad, Jim's life centers around the basketball court and the court becomes a metaphor for the world in his mind. A best friend who is dying of leukemia, a coach ("Swifty") who takes unacceptable liberties with the boys on his team, teenage sexual angst, and an unhealthy appetite for heroin -- all of these begin to encroach on young Jim's dream of becoming a basketball star. Soon, the dark streets of New York become a refuge from his mother's mounting concern for her son. He can't go home and his only escape from the reality of the streets is heroin for which he steals, robs and prostitutes himself. Only with the help of Reggie, an older neighborhood friend with whom Jim "picked up a game" now and then, is he able to begin the long journey back to sanity.

SOURCE: The Basketball Diaries NTSC WS DVDR

related torrents

Torrent name

health leech seeds Size
 


comments (0)

Main Menu