Drama

The Aryan Couple AC3 5,1 DVDRip[Eng]2004

  • Download 5x Faster
  • Download torrent
  • Direct Download
  • Rate this torrent +  |  -
The Aryan Couple AC3 5,1 DVDRip[Eng]2004

Anonymous and Free Direct Download 300GB+


Torrent info

Name:The Aryan Couple AC3 5,1 DVDRip[Eng]2004

Total Size: 1.39 GB

Magnet: Magnet Link

Seeds: 2

Leechers: 3

Stream: Watch Online @ Movie4u

Last Updated: 2015-09-22 22:09:09 (Update Now)

Torrent added: 2009-09-02 18:03:44



VPN For Torrents

Torrent Files List


The Aryan Couple-AC3-5,1-DVDRip[Eng]2004-CD1.jpg (Size: 1.39 GB) (Files: 5)

 The Aryan Couple-AC3-5,1-DVDRip[Eng]2004-CD1.jpg

268.96 KB

 The Aryan Couple-AC3-5,1-DVDRip[Eng]2004-Front.jpg

597.63 KB

 The Aryan Couple-AC3-5,1-DVDRip[Eng]2004.avi

1.39 GB

 The Aryan Couple-AC3-5,1-DVDRip[Eng]2004.txt

2.41 KB

 Torrent downloaded from Demonoid.com.txt

0.05 KB
 

tracker

leech seeds
 

Torrent description

http://www.imdb.com/title/tt0407536/

User Rating:5.9/10 - 336 votes

Drama/War

Director:John Daly

Cast:Martin Landau/Danny Webb/Judy Parfitt/Kenny Doughty, and others.

Plot:
A WWII Drama about a German/Jewish industrialist who, in order to ensure his family's safe passage out of Germany, is forced to hand over his
business to the Nazis.

Info:

Covers included.

General
Complete name : The Aryan Couple-AC3-5,1-DVDRip[Eng]2004.avi
Format : AVI
Format/Info : Audio Video Interleave
File size : 1.39 GiB
Duration : 1h 54mn
Overall bit rate : 1 729 Kbps
Writing application : VirtualDubMod 1.5.4.1 (build 2178/release)
Writing library : VirtualDubMod build 2178/release

Video
Format : MPEG-4 Visual
Format profile : [email protected]
Format settings, BVOP : No
Format settings, QPel : No
Format settings, GMC : No warppoints
Format settings, Matrix : Default
Codec ID : XVID
Codec ID/Hint : XviD
Duration : 1h 54mn
Bit rate : 1 273 Kbps
Width : 720 pixels
Height : 416 pixels
Display aspect ratio : 16/9
Frame rate : 25.000 fps
Resolution : 24 bits
Colorimetry : 4:2:0
Scan type : Progressive
Bits/(Pixel*Frame) : 0.170
Stream size : 1.02 GiB (74%)
Writing library : XviD 50

Audio
Format : AC-3
Format/Info : Audio Coding 3
Codec ID : 2000
Duration : 1h 54mn
Bit rate mode : Constant
Bit rate : 448 Kbps
Channel(s) : 6 channels
Channel positions : Front: L C R, Surround: L R, LFE
Sampling rate : 48.0 KHz
Stream size : 368 MiB (26%)
Alignment : Split accross interleaves
Interleave, duration : 80 ms (2.00 video frames)
Interleave, preload duration : 500 ms
Language : English

Enjoy...

related torrents

Torrent name

health leech seeds Size

The Aryan Couple (2004)

0 0 702.03 MB 0
 


comments (0)

Main Menu