Drama

Tape (2001)

  • Download 5x Faster
  • Download torrent
  • Direct Download
  • Rate this torrent +  |  -
Tape (2001)

Anonymous and Free Direct Download 300GB+


Torrent info

Name:Tape (2001)

Total Size: 697.44 MB

Magnet: Magnet Link

Seeds: 0

Leechers: 0

Stream: Watch Online @ Movie4u

Last Updated: 2013-02-10 14:52:31 (Update Now)

Torrent added: 2009-09-02 17:49:55



VPN For Torrents

Torrent Files List


Tape.(2001).avi (Size: 697.44 MB) (Files: 2)

 Tape.(2001).avi

697.44 MB

 Torrent downloaded from Demonoid.com.txt

0.05 KB
 

Announce URL:

Torrent description

Based on a three-character, one-act play, Tape is set entirely in Room 19 of a seedy motel in Lansing, Michigan rented by Vince, an ill-tempered, outgoing party animal/drug dealer who's visited by his old high school friend Jon, a documentary filmmaker, where they pass the time reminiscing about the good old times which take a turn when Vince records their conversation with Jon admitting to a possible date-rape of Vince's old girlfriend Amy, who later shows up and opens up a new wave of talk and arguments about whose story is fact or fabricated.

Cast:

Ethan Hawke ... Vince
Robert Sean Leonard ... Jon Salter
Uma Thurman ... Amy Randall


IMDB Rating 7.3/10 (7,253 Votes)


General
Complete name : Tape.(2001).avi
Format : AVI
Format/Info : Audio Video Interleave
Format settings : rec
File size : 697 MiB
Duration : 1h 26mn
Overall bit rate : 1 129 Kbps

Video
Format : MPEG-4 Visual
Format profile : [email protected]
Format settings, BVOP : No
Format settings, QPel : No
Format settings, GMC : No warppoints
Format settings, Matrix : Default
Codec ID : XVID
Codec ID/Hint : XviD
Duration : 1h 26mn
Bit rate : 989 Kbps
Width : 640 pixels
Height : 336 pixels
Display aspect ratio : 1.905
Frame rate : 23.976 fps
Resolution : 24 bits
Colorimetry : 4:2:0
Scan type : Progressive
Bits/(Pixel*Frame) : 0.192
Stream size : 611 MiB (88%)
Writing library : XviD 0.0.09 (UTC 2003-03-25)

Audio
Format : MPEG Audio
Format version : Version 1
Format profile : Layer 3
Codec ID : 55
Codec ID/Hint : MP3
Duration : 1h 26mn
Bit rate mode : Variable
Bit rate : 127 Kbps
Nominal bit rate : 128 Kbps
Channel(s) : 2 channels
Sampling rate : 48.0 KHz
Resolution : 16 bits
Stream size : 78.6 MiB (11%)
Alignment : Aligned on interleaves
Interleave, duration : 24 ms (0.58 video frame)
Interleave, preload duration : 455 ms
Writing library : LAME3.93
Encoding settings : ABR


Please help your fellow pirates by seeding after download!

related torrents

Torrent name

health leech seeds Size

Tape 2001 DVDRip

0 0 697.55 MB 0
 


comments (0)

Main Menu