Drama

Taking Chance 2009 DVDRIP XviD ZEKTORM

  • Download 5x Faster
  • Download torrent
  • Direct Download
  • Rate this torrent +  |  -
Taking Chance 2009 DVDRIP XviD ZEKTORM

Anonymous and Free Direct Download 300GB+


Torrent info

Name:Taking Chance 2009 DVDRIP XviD ZEKTORM

Total Size: 711.77 MB

Magnet: Magnet Link

Seeds: 5

Leechers: 5

Stream: Watch Online @ Movie4u

Last Updated: 0000-00-00 00:00:00 (Update Now)

Torrent added: 2009-09-02 17:47:26



VPN For Torrents

Torrent Files List


READ.hlp (Size: 711.77 MB) (Files: 4)

 READ.hlp

11.12 KB

 Subs

  Taking.Chance.2009.DVDRIP.XviD-ZEKTORM.idx

119.29 KB

  Taking.Chance.2009.DVDRIP.XviD-ZEKTORM.sub

10.17 MB

 Taking.Chance.2009.DVDRIP.XviD-ZEKTORM.avi

701.48 MB
 

Announce URL: http://denis.stalker.h3q.com:6969/announce

Torrent description

Title : Taking Chance
Year : 2009
Genre : Drama | War
iMDB URL : http://www.imdb.com/title/tt1019454/
Awards : 1 nomination

Complete name : Taking.Chance.2009.DVDRIP.XviD-ZEKTORM.avi
Format : AVI
File size : 701 MiB
Duration : 1h 17mn
Overall bit rate : 1261 Kbps
Subtitles : English, Spanish, French, Portuguese (Format: VobSub)
Source : DVD NTSC

Video
Format : MPEG-4 Visual
Format profile : Streaming [email protected]
Codec ID : DX50
Codec ID/Hint : DivX 5
Duration : 1h 17mn
Bit rate : 1126 Kbps
Width : 720 pixels
Height : 400 pixels
Display aspect ratio : 16/9
Frame rate : 23.976 fps
Resolution : 24 bits
Colorimetry : 4:2:0
Scan type : Progressive
Bits/(Pixel*Frame) : 0.163
Stream size : 626 MiB (89%)
Writing library : XviD

Audio
Format : MPEG Audio
Format version : Version 1
Format profile : Layer 3
Codec ID : 55
Codec ID/Hint : MP3
Duration : 1h 17mn
Bit rate mode : Constant
Bit rate : 128 Kbps
Channel(s) : 2 channels
Sampling rate : 48.0 KHz
Resolution : 16 bits
Stream size : 71.2 MiB (10%)

related torrents

Torrent name

health leech seeds Size
 


comments (0)

Main Menu