Drama

Taking Chance (2009)

  • Download 5x Faster
  • Download torrent
  • Direct Download
  • Rate this torrent +  |  -
Taking Chance (2009)

Anonymous and free Direct Download 300GB+


Torrent info

Name:Taking Chance (2009)

Total Size: 698.90 MB

Magnet: Magnet Link

Seeds: 2

Leechers: 1

Stream: Watch Online @ Movie4u

Last Updated: 0000-00-00 00:00:00 (Update Now)

Torrent added: 2009-09-02 17:45:33



VPN For Torrents

Torrent Files List


Taking Chance (2009).avi (Size: 698.90 MB) (Files: 2)

 Taking Chance (2009).avi

698.90 MB

 Torrent_downloaded_from_Demonoid.com.txt

0.05 KB
 

Announce URL: http://tracker.hexagon.cc:2710/announce

Torrent description

Taking Chance (2009) preview 0

Based on the true experiences of Lt. Colonel Michael Strobl, who wrote eloquently of them in a widely circulated 2004 article, Taking Chance is a profoundly emotional look at the military rituals taken to honor its war dead, as represented by a fallen Marine killed in Iraq, Lance Corporal Chance Phelps.

Working as a strategic analyst at Marine Corps Base Quantico in VA, Lt. Col. Strobl (Kevin Bacon) learns that Phelps had once lived in his hometown, and volunteers to escort the body to its final resting place in Wyoming. As Strobl journeys across America, he discovers the great diligence and dignity in how the military, and all those involved with preparing and transporting the body, handle their duties. Equally important, he encounters hundreds of people affected by Chance's death, a vast majority of whom never knew him. This collective grieving eventually causes Lt. Col. Strobl, a veteran of Desert Storm now assigned to office duty, to probe his own guilt about not re-deploying to Iraq for the current conflict. Arriving in Wyoming, Lt. Col. Strobl completes his catharsis when he encounters Chance's gracious family and friends, and discovers an extraordinary outpouring of community support..

Taking Chance (2009) preview 1

Taking Chance (2009) preview 2

Format : AVI
Format/Info : Audio Video Interleave
File size : 699 MiB
Duration : 1h 17mn
Overall bit rate : 1 258 Kbps
Writing application : MEncoder dev-SVN-r26059-4.1.2
Writing library : MPlayer

Video
Format : MPEG-4 Visual
Format profile : Streaming [email protected]
Format settings, BVOP : Yes
Format settings, QPel : No
Format settings, GMC : No warppoints
Format settings, Matrix : Default
Muxing mode : Packed bitstream
Codec ID : XVID
Codec ID/Hint : XviD
Duration : 1h 17mn
Bit rate : 1 119 Kbps
Width : 624 pixels
Height : 352 pixels
Display aspect ratio : 16/9
Frame rate : 23.976 fps
Resolution : 24 bits
Colorimetry : 4:2:0
Scan type : Progressive
Bits/(Pixel*Frame) : 0.213
Stream size : 622 MiB (89%)
Writing library : XviD 1.2.1 (UTC 2008-12-04)

Audio
Format : MPEG Audio
Format version : Version 1
Format profile : Layer 3
Codec ID : 55
Codec ID/Hint : MP3
Duration : 1h 17mn
Bit rate mode : Variable
Bit rate : 126 Kbps
Minimum bit rate : 135 Kbps
Channel(s) : 2 channels
Sampling rate : 48.0 KHz
Resolution : 16 bits
Stream size : 69.9 MiB (10%)
Alignment : Aligned on interleaves
Interleave, duration : 24 ms (0.58 video frame)
Interleave, preload duration : 503 ms
Writing library : LAME3.97
Encoding settings : ABR

related torrents

Torrent name

health leech seeds Size
 


comments (0)

Main Menu