Drama

Sword of Honour 2001 DIVX La Vela avi

  • Download 5x Faster
  • Download torrent
  • Direct Download
  • Rate this torrent +  |  -
Sword of Honour 2001 DIVX La Vela avi

Download FREE And Anonymously


Torrent info

Name:Sword of Honour 2001 DIVX La Vela avi

Total Size: 3.85 GB

Magnet: Magnet Link

Seeds: 0

Leechers: 0

Stream: Watch Full Movie @ Movie4u

Last Updated: 2016-02-03 07:58:04 (Update Now)

Torrent added: 2009-09-02 17:38:44



VPN For Torrents

Torrent Files List


Media.nfo (Size: 3.85 GB) (Files: 6)

 Media.nfo

2.21 KB

 Sword of Honour.jpg

23.82 KB

 Sword.of.Honour.2001.DIVX.La.Vela.cd1.avi

1.90 GB

 Sword.of.Honour.2001.DIVX.La.Vela.cd2.avi

1.95 GB

 Sword_Of_Honour_R1-front.jpg

1.03 MB

 Thank You Info.txt

8.39 KB
 

tracker

leech seeds
 

Torrent description

Synopsis:


Layered storytelling and rich character development distinguish this British television mini-series based on the semi-autobiographical writings of Evelyn Waugh. Daniel Craig plays Guy Crouchback, a... Layered storytelling and rich character development distinguish this British television mini-series based on the semi-autobiographical writings of Evelyn Waugh. Daniel Craig plays Guy Crouchback, a soldier fighting with the British forces in the Second World War, and the program charts Crouchback's grappling with the ravages of war, his relationship with his ex-wife, and his own shortcomings. Beautifully put together, executed, and acted, SWORD OF HONOUR is dramatic, absorbing viewing from start to finish.


Starring: Daniel Craig, Katrin Cartlidge

Starring: Daniel Craig, Katrin Cartlidge

Director: Bill Anderson


General:

Complete name : Sword.of.Honour.2001.DIVX.La.Vela.avi

CD`s : 2
Imdb : http://www.imdb.com/title/tt0273021/
Language : English
Subtitles : N/A
Format : AVI
Format/Info : Audio Video Interleave
Format profile : OpenDML
File size : 1.90 GiB
Duration : 4h 22mn
Overall bit rate : 1 038 Kbps
Writing application : Lavf51.12.1

Video
Format : MPEG-4 Visual
Format profile : [email protected]
Format settings, BVOP : No
Format settings, QPel : No
Format settings, GMC : No warppoints
Format settings, Matrix : Default
Codec ID : DX50
Codec ID/Hint : DivX 5
Duration : 4h 22mn
Bit rate : 937 Kbps
Width : 720 pixels
Height : 576 pixels
Display aspect ratio : 5/4
Frame rate : 25.000 fps
Standard : PAL
Resolution : 24 bits
Colorimetry : 4:2:0
Scan type : Progressive
Bits/(Pixel*Frame) : 0.090
Stream size : 1.72 GiB (90%)
Writing library : Lavc51.40.4

Audio
Format : MPEG Audio
Format version : Version 1
Format profile : Layer 3
Codec ID : 55
Codec ID/Hint : MP3
Duration : 1h 38mn
Bit rate mode : Constant
Bit rate : 256 Kbps
Channel(s) : 2 channels
Sampling rate : 48.0 KHz
Resolution : 16 bits
Stream size : 180 MiB (9%)
Alignment : Aligned on interleaves
Interleave, duration : 24 ms (0.60 video frame)
Interleave, preload duration : 24 ms

related torrents

Torrent name

health leech seeds Size
 


comments (0)

Main Menu

 

script data-cfasync="false" src="//d2ghscazvn398x.cloudfront.net/?cshgd=690275">