Other

[IT]Shaun Of The Dead 720p

  • Download 5x Faster
  • Download torrent
  • Direct Download
  • Rate this torrent +  |  -
[IT]Shaun Of The Dead 720p

Free and Direct Download with Usenet.nl 300GB+ free


Torrent info

Name:[IT]Shaun Of The Dead 720p

Total Size: 4.24 GB

Magnet: Magnet Link

Seeds: 1

Leechers: 0

Stream: Watch Online @ Movie4u

Last Updated: 2010-02-16 13:09:45 (Update Now)

Torrent added: 2009-09-02 17:24:29





Torrent Files List


Shaun.Of.The.Dead.HDDVD.720p.German.mkv (Size: 4.24 GB) (Files: 2)

 Shaun.Of.The.Dead.HDDVD.720p.German.mkv

4.24 GB

 Shaun.Of.The.Dead.HDDVD.720p.German.nfo

0.83 KB
 

Announce URL: http://intertracker.org/announce.php

Torrent description

Container: MKV
Format: x264
Resolution: 1080p
Source Media: HD-DVD
Audio Format: DTS
Audio Channels: 5.1
Audio Bitrate: 1536
Subtitles English


Enjoy!


drealiT
------------
General Info
------------
imdb: http://www.imdb.com/title/tt0365748/
Length: 99 minutes

Technical Specs
---------------
Container...........: Matroska
Video Encoder.......: x264
Video Aspect Ratio..: 2.35:1 (1920x822)
Audio Codec.........: DTS
Audio BitRate.......: 1536 kbit/sec
Audio Channels......: 5.1 channels
Subtitles...........: English
Source..............: HD-DVD
File Size...........: 9.81 GB (avg bitrate of 12.3 Mbps)
DXVA compliant......: Yes

------------------------------
General
Complete name : Shaun.of.the.Dead.2004.HDDVD.1080p.DTS.dxva-drealiT.mkv
Format : Matroska
File size : 9.81 GiB
Duration : 1h 39mn
Overall bit rate : 14.1 Mbps
Encoded date : UTC 2009-07-20 01:16:52
Writing application : mkvmerge v2.9.5 ('Tu es le seul' built on Jun 7 2009
11:07:07
Writing library : libebml v0.7.7 + libmatroska v0.8.1

Video
ID : 1
Format : AVC
Format/Info : Advanced Video Codec
Format profile : [email protected]
Format settings, CABAC : Yes
Format settings, ReFrames : 4 frames
Muxing mode : Container [email protected]
Codec ID : V_MPEG4/ISO/AVC
Duration : 1h 39mn
Bit rate : 12.3 Mbps
Width : 1 920 pixels
Height : 822 pixels
Display aspect ratio : 2.35
Frame rate : 23.976 fps
Resolution : 24 bits
Colorimetry : 4:2:0
Scan type : Progressive
Bits/(Pixel*Frame) : 0.326
Stream size : 8.56 GiB (87%)
Title : x264 - CRF Single Pass
Writing library : x264 core 68 r1181M 49bf767
Encoding settings : cabac=1 / ref=4 / deblock=1:-3:-3 / analyse=0x3:0x113 /
me=umh / subme=9 / psy_rd=1.0:0.0 / mixed_ref=1 / me_range=24 / chroma_me=1 /
trellis=2 / 8x8dct=1 / cqm=0 / deadzone=21,11 / chroma_qp_offset=-2 / threads=6
/ nr=0 / decimate=0 / mbaff=0 / bframes=3 / b_pyramid=1 / b_adapt=2 / b_bias=0 /
direct=1 / wpredb=1 / keyint=250 / keyint_min=25 / scenecut=40 / rc=crf /
crf=20.0 / qcomp=0.60 / qpmin=10 / qpmax=51 / qpstep=4 / vbv_maxrate=50000 /
vbv_bufsize=50000 / ip_ratio=1.40 / pb_ratio=1.30 / aq=1:1.00
Language : English

Audio
ID : 2
Format : DTS
Format/Info : Digital Theater Systems
Codec ID : A_DTS
Duration : 1h 39mn
Bit rate mode : Constant
Bit rate : 1 510 Kbps
Channel(s) : 6 channels
Channel positions : Front: L C R, Surround: L R, LFE
Sampling rate : 48.0 KHz
Resolution : 24 bits
Stream size : 1.05 GiB (11%)
Title : DTS - 1536 kbit/s
Language : English

Text
ID : 3
Format : UTF-8
Codec ID : S_TEXT/UTF8
Codec ID/Info : UTF-8 Plain Text

related torrents

Torrent name

health leech seeds Size
 

comments (0)

Main Menu