Other

[IT]Gesichter des Todes 1 7 DVDRip

  • Download 5x Faster
  • Download torrent
  • Direct Download
  • Rate this torrent +  |  -
[IT]Gesichter des Todes 1 7 DVDRip

Anonymous and Free Direct Download 300GB+


Torrent info

Name:[IT]Gesichter des Todes 1 7 DVDRip

Total Size: 4.65 GB

Magnet: Magnet Link

Seeds: 0

Leechers: 0

Stream: Watch Online @ Movie4u

Last Updated: 2010-05-30 12:34:57 (Update Now)

Torrent added: 2009-09-02 17:16:36



VPN For Torrents

Torrent Files List


Gesichter Des Todes 1 (Size: 4.65 GB) (Files: 21)

 Gesichter Des Todes 1

  Cover.jpg

2.48 MB

  DVD.jpg

418.56 KB

  Gesichter des Todes 1.avi

713.37 MB

 Gesichter Des Todes 2

  Cover.jpg

2.42 MB

  DVD.jpg

375.57 KB

  Gesichter des Todes 2.avi

716.08 MB

 Gesichter Des Todes 3

  Cover.jpg

2.49 MB

  DVD.jpg

374.42 KB

  Gesichter des Todes 3.avi

719.79 MB

 Gesichter Des Todes 4

  Cover.jpg

2.95 MB

  DVD.jpg

398.58 KB

  Gesichter des Todes 4.avi

688.61 MB

 Gesichter Des Todes 5

  Cover.jpg

2.85 MB

  DVD.jpg

376.69 KB

  Gesichter des Todes 5.avi

647.52 MB

 Gesichter Des Todes 6

  Cover.jpg

3.05 MB

  DVD.jpg

410.03 KB

  Gesichter des Todes 6.avi

611.61 MB

 Gesichter Des Todes 7

  Cover.jpg

3.87 MB

  DVD.jpg

924.58 KB

  Gesichter des Todes 7.avi

643.65 MB
 

Announce URL: http://intertracker.org/announce.php

Torrent description

Gesichter.des.Todes.1-7.GERMAN.DOKU.1978-1999.DvDRiP-

---------------------------------------------------------------------------

General
Complete name : Gesichter des Todes 1.avi
Format : AVI
Format/Info : Audio Video Interleave
File size : 713 MiB
Duration : 1h 41mn
Overall bit rate : 983 Kbps
Movie name : GESICHTER_SE
Writing application : MEncoder dev-SVN-r24988-4.2.1
Writing library : MPlayer

Video
Format : MPEG-4 Visual
Format profile : [email protected]
Format settings, BVOP : No
Format settings, QPel : No
Format settings, GMC : No warppoints
Format settings, Matrix : Default
Codec ID : DIVX
Codec ID/Info : Project Mayo
Codec ID/Hint : DivX 4
Duration : 1h 41mn
Bit rate : 824 Kbps
Width : 640 pixels
Height : 480 pixels
Display aspect ratio : 4/3
Frame rate : 25.000 fps
Resolution : 24 bits
Colorimetry : 4:2:0
Scan type : Progressive
Bits/(Pixel*Frame) : 0.107
Stream size : 598 MiB (84)
Writing library : Lavc51.48.0

Audio
Format : MPEG Audio
Format version : Version 1
Format profile : Layer 3
Codec ID : 55
Codec ID/Hint : MP3
Duration : 1h 41mn
Bit rate mode : Variable
Bit rate : 147 Kbps
Channel(s) : 2 channels
Sampling rate : 48.0 KHz
Resolution : 16 bits
Stream size : 106 MiB (15)
Alignment : Aligned on interleaves
Interleave, duration : 24 ms (0.60 video frame)
Interleave, preload duration : 827 ms

------------------------------------------------------------------------

General
Complete name : Gesichter des Todes 2.avi
Format : AVI
Format/Info : Audio Video Interleave
File size : 716 MiB
Duration : 1h 37mn
Overall bit rate : 1 022 Kbps
Movie name : GDT2
Writing application : MEncoder dev-SVN-r24988-4.2.1
Writing library : MPlayer

Video
Format : MPEG-4 Visual
Format profile : [email protected]
Format settings, BVOP : No
Format settings, QPel : No
Format settings, GMC : No warppoints
Format settings, Matrix : Default
Codec ID : DIVX
Codec ID/Info : Project Mayo
Codec ID/Hint : DivX 4
Duration : 1h 37mn
Bit rate : 825 Kbps
Width : 640 pixels
Height : 480 pixels
Display aspect ratio : 4/3
Frame rate : 25.000 fps
Resolution : 24 bits
Colorimetry : 4:2:0
Scan type : Progressive
Bits/(Pixel*Frame) : 0.107
Stream size : 578 MiB (81)
Writing library : Lavc51.48.0

Audio
Format : MPEG Audio
Format version : Version 1
Format profile : Layer 3
Codec ID : 55
Codec ID/Hint : MP3
Duration : 1h 37mn
Bit rate mode : Variable
Bit rate : 185 Kbps
Channel(s) : 2 channels
Sampling rate : 48.0 KHz
Resolution : 16 bits
Stream size : 129 MiB (18)
Alignment : Aligned on interleaves
Interleave, duration : 24 ms (0.60 video frame)
Interleave, preload duration : 872 ms

-----------------------------------------------------------------------

General
Complete name : Gesichter des Todes 3.avi
Format : AVI
Format/Info : Audio Video Interleave
File size : 720 MiB
Duration : 1h 27mn
Overall bit rate : 1 152 Kbps
Movie name : GDT3
Writing application : MEncoder dev-SVN-r24988-4.2.1
Writing library : MPlayer

Video
Format : MPEG-4 Visual
Format profile : [email protected]
Format settings, BVOP : No
Format settings, QPel : No
Format settings, GMC : No warppoints
Format settings, Matrix : Default
Codec ID : DIVX
Codec ID/Info : Project Mayo
Codec ID/Hint : DivX 4
Duration : 1h 27mn
Bit rate : 900 Kbps
Width : 640 pixels
Height : 480 pixels
Display aspect ratio : 4/3
Frame rate : 25.000 fps
Resolution : 24 bits
Colorimetry : 4:2:0
Scan type : Progressive
Bits/(Pixel*Frame) : 0.117
Stream size : 562 MiB (78)
Writing library : Lavc51.48.0

Audio
Format : MPEG Audio
Format version : Version 1
Format profile : Layer 3
Codec ID : 55
Codec ID/Hint : MP3
Duration : 1h 27mn
Bit rate mode : Variable
Bit rate : 239 Kbps
Channel(s) : 2 channels
Sampling rate : 48.0 KHz
Resolution : 16 bits
Stream size : 150 MiB (21)
Alignment : Aligned on interleaves
Interleave, duration : 24 ms (0.60 video frame)
Interleave, preload duration : 667 ms

-----------------------------------------------------------------------

General
Complete name : Gesichter des Todes 4.avi
Format : AVI
Format/Info : Audio Video Interleave
File size : 689 MiB
Duration : 1h 29mn
Overall bit rate : 1 073 Kbps
Movie name : gdt4
Writing application : MEncoder dev-SVN-r24988-4.2.1
Writing library : MPlayer

Video
Format : MPEG-4 Visual
Format profile : [email protected]
Format settings, BVOP : No
Format settings, QPel : No
Format settings, GMC : No warppoints
Format settings, Matrix : Default
Codec ID : DIVX
Codec ID/Info : Project Mayo
Codec ID/Hint : DivX 4
Duration : 1h 29mn
Bit rate : 899 Kbps
Width : 640 pixels
Height : 480 pixels
Display aspect ratio : 4/3
Frame rate : 25.000 fps
Resolution : 24 bits
Colorimetry : 4:2:0
Scan type : Progressive
Bits/(Pixel*Frame) : 0.117
Stream size : 577 MiB (84)
Writing library : Lavc51.48.0

Audio
Format : MPEG Audio
Format version : Version 1
Format profile : Layer 3
Codec ID : 55
Codec ID/Hint : MP3
Duration : 1h 29mn
Bit rate mode : Variable
Bit rate : 161 Kbps
Channel(s) : 2 channels
Sampling rate : 48.0 KHz
Resolution : 16 bits
Stream size : 103 MiB (15)
Alignment : Aligned on interleaves
Interleave, duration : 24 ms (0.60 video frame)
Interleave, preload duration : 788 ms

----------------------------------------------------------------

General
Complete name : Gesichter des Todes 5.avi
Format : AVI
Format/Info : Audio Video Interleave
File size : 648 MiB
Duration : 1h 20mn
Overall bit rate : 1 126 Kbps
Movie name : the bird
Writing application : MEncoder dev-SVN-r24988-4.2.1
Writing library : MPlayer

Video
Format : MPEG-4 Visual
Format profile : [email protected]
Format settings, BVOP : No
Format settings, QPel : No
Format settings, GMC : No warppoints
Format settings, Matrix : Default
Codec ID : DIVX
Codec ID/Info : Project Mayo
Codec ID/Hint : DivX 4
Duration : 1h 20mn
Bit rate : 975 Kbps
Width : 640 pixels
Height : 480 pixels
Display aspect ratio : 4/3
Frame rate : 25.000 fps
Resolution : 24 bits
Colorimetry : 4:2:0
Scan type : Progressive
Bits/(Pixel*Frame) : 0.127
Stream size : 561 MiB (87)
Writing library : Lavc51.48.0

Audio
Format : MPEG Audio
Format version : Version 1
Format profile : Layer 3
Codec ID : 55
Codec ID/Hint : MP3
Duration : 1h 20mn
Bit rate mode : Variable
Bit rate : 138 Kbps
Channel(s) : 2 channels
Sampling rate : 48.0 KHz
Resolution : 16 bits
Stream size : 79.3 MiB (12)
Alignment : Aligned on interleaves
Interleave, duration : 24 ms (0.60 video frame)
Interleave, preload duration : 777 ms

-----------------------------------------------------------------

General
Complete name : Gesichter des Todes 6.avi
Format : AVI
Format/Info : Audio Video Interleave
File size : 612 MiB
Duration : 1h 20mn
Overall bit rate : 1 056 Kbps
Movie name : gdt6
Writing application : MEncoder dev-SVN-r24988-4.2.1
Writing library : MPlayer

Video
Format : MPEG-4 Visual
Format profile : [email protected]
Format settings, BVOP : No
Format settings, QPel : No
Format settings, GMC : No warppoints
Format settings, Matrix : Default
Codec ID : DIVX
Codec ID/Info : Project Mayo
Codec ID/Hint : DivX 4
Duration : 1h 20mn
Bit rate : 899 Kbps
Width : 640 pixels
Height : 480 pixels
Display aspect ratio : 4/3
Frame rate : 25.000 fps
Resolution : 24 bits
Colorimetry : 4:2:0
Scan type : Progressive
Bits/(Pixel*Frame) : 0.117
Stream size : 521 MiB (85)
Writing library : Lavc51.48.0

Audio
Format : MPEG Audio
Format version : Version 1
Format profile : Layer 3
Codec ID : 55
Codec ID/Hint : MP3
Duration : 1h 20mn
Bit rate mode : Variable
Bit rate : 144 Kbps
Channel(s) : 2 channels
Sampling rate : 48.0 KHz
Resolution : 16 bits
Stream size : 83.5 MiB (14)
Alignment : Aligned on interleaves
Interleave, duration : 24 ms (0.60 video frame)
Interleave, preload duration : 767 ms

----------------------------------------------------------------

General
Complete name : Gesichter des Todes 7.avi
Format : AVI
Format/Info : Audio Video Interleave
File size : 644 MiB
Duration : 1h 23mn
Overall bit rate : 1 077 Kbps
Movie name : DVDVolume
Writing application : MEncoder dev-SVN-r24988-4.2.1
Writing library : MPlayer

Video
Format : MPEG-4 Visual
Format profile : [email protected]
Format settings, BVOP : No
Format settings, QPel : No
Format settings, GMC : No warppoints
Format settings, Matrix : Default
Codec ID : DIVX
Codec ID/Info : Project Mayo
Codec ID/Hint : DivX 4
Duration : 1h 23mn
Bit rate : 900 Kbps
Width : 640 pixels
Height : 480 pixels
Display aspect ratio : 4/3
Frame rate : 25.000 fps
Resolution : 24 bits
Colorimetry : 4:2:0
Scan type : Progressive
Bits/(Pixel*Frame) : 0.117
Stream size : 538 MiB (84)
Writing library : Lavc51.48.0

Audio
Format : MPEG Audio
Format version : Version 1
Format profile : Layer 3
Codec ID : 55
Codec ID/Hint : MP3
Duration : 1h 23mn
Bit rate mode : Variable
Bit rate : 164 Kbps
Channel(s) : 2 channels
Sampling rate : 48.0 KHz
Resolution : 16 bits
Stream size : 98.1 MiB (15)
Alignment : Aligned on interleaves
Interleave, duration : 24 ms (0.60 video frame)
Interleave, preload duration : 870 ms

Gesichter des Todes ist ein 1978 erschienener Mondo-Film, in dem Szenen von angeblich
echten Hinrichtungen und tdlichen Unfllen gezeigt werden, die so aussehen, als ob sie
von wirklichen Nachrichtenteams aufgenommen wurden. In dem Film wird zwar so getan,
als ob die Todesszenen real wren, aber der Film besteht zum Groteil aus gestelltem Material.
Ebenso wurde dort die urbane Legende aufgegriffen, dass in Asien Affenhirn gegessen werde; so ist zu sehen,
wie ein europisches Paar das Gehirn mit dem Lffel direkt aus dem Schdel eines noch lebenden Affen verspeist.
Tatschlich entsteht dieser Eindruck aber erst durch den Filmschnitt, die Szene ist inszeniert.

Regie fhrte in diesem Film John Alan Schwartz, der auch eine kleine Rolle in dem Film selber bernahm,
in der er den Anfhrer eines Menschenfresserkultes in San Francisco spielt.

ACHTUNG:
Der erste Teil der Serie wurde im November 1982 von der Bundesprfstelle fr jugendgefhrdende Medien indiziert.
Der zweite Teil wurde 1989 und der dritte Teil wurde im Jahr 1990 indiziert. Die Teile 4 bis 6 und
The Best of Gesichter des Todes 1-3 wurden aufgrund des 131 StGB wegen Gewaltdarstellung bundesweit beschlagnahmt.
Als Begrndung wurde angegeben, dass den Filmen keine ernsthafte Dokumentarqualitt zuerkannt werden knne,
sondern dass sie ausschlielich Unterhaltungszwecken dienen

related torrents

Torrent name

health leech seeds Size

[wt] Gesichter Des Todes

0 1 775.00 MB 0
 


comments (0)

Main Menu