Drama

Stiletto(2009)DvdScr[MiNdSkiN]1337x

  • Download 5x Faster
  • Download torrent
  • Direct Download
  • Rate this torrent +  |  -
Stiletto(2009)DvdScr[MiNdSkiN]1337x

Free and Direct Download with Usenet.nl 300GB+ free


Torrent info

Name:Stiletto(2009)DvdScr[MiNdSkiN]1337x

Total Size: 706.63 MB

Magnet: Magnet Link

Seeds: 0

Leechers: 0

Stream: Watch Online @ Movie4u

Last Updated: 2015-10-18 08:09:37 (Update Now)

Torrent added: 2009-09-02 17:16:17





Torrent Files List


cover.jpg (Size: 706.63 MB) (Files: 3)

 cover.jpg

27.45 KB

 Stiletto(2009)DvdScr[MiNdSkiN]1337x.avi

706.60 MB

 Stiletto(2009)DvdScr[MiNdSkiN]1337x.nfo

9.10 KB
 

Announce URL:

Torrent description




...


VIEW COVER

VIEW SCREENS


...




ÑÑÑÑÑÑÑÑÑÑÑÑÑÑÑÑÑÑÑÑÑÑÑÑÑÑÑÑÑÑÑÑÑÑÑÑÑÑÑÑÑÑÑÑÑÑÑÑÑÑÑÑÑÑÑÑÑÑÑÑÑÑÑÑÑÑÑÑÑÑÑÑÑÑÑÑÑÑ
ÆÑÆ ÆÑÆ
ÆÑÆ A 1337X Release By: MiNdSkiN ÆÑÆ
ÆÑÆ ÆÑÆ
ÑÑÑÑÑÑÑÑÑÑÑÑÑÑÑÑÑÑÑÑÑÑÑÑÑÑÑÑÑÑÑÑÑÑÑÑÑÑÑÑÑÑÑÑÑÑÑÑÑÑÑÑÑÑÑÑÑÑÑÑÑÑÑÑÑÑÑÑÑÑÑÑÑÑÑÑÑÑ
ÆÑÆAA. .AAÆÑÆ
ÆÑÆA AÆÑÆ
ÆÑÆ ÆÑÆ
ÆÑ .uuu ÑÆ
Æ z@#"%c .uuzm**"""""*%mu.. z*"` .e@#N Æ
@!!!R. #c .z*" ^*c z dT!!!!!>
'!!!!!!N "i u*" #s :" @?!!!!!!!R
t!!!!!!!#u "i .@ ^$ :R!!!!!!!!!X
'!!!!!!!!!#c "i:# ?> R!!!!!!!!!!X
'!!!!!!!!!!!N @ 4W!!!!!!!!!!!>
'!!!!!!!!!!!!Ru" ?!!!!!!!!!!X
'X!!!!!!!!!!!9~ . . 'X!!!!!!!!!6
R!!!!!!!!!!tF z$#` h &!!UR!!!!!F
?!!!!!!!!$ .@ X !!!!!X
M!!!!!i#U!E . @F ! FdR!!!!!!f
'X!!!!!#c'?u@#"*. :$ F'9!!!!!!!@
9!!!!!!!?NM ^*c dF ' @!!!!!!!X>
R!!!!!!!!& "e d K<!!!!!!!XF
'X!!!!!!!M> ^N f < E!!!!!!X"
t!!!!!!!# ^N :" .e$"^ Fn!!!!!XP
#X!!!!!!ML *c z" .e$$$$$ M'!!!!W*
"[email protected] ^%u. ""**#).zd$$#$$$$$$$ <*@**"
'N 4$$$$$@$$$)$$#$$$$$$$$$ :$
?> "$$$$$$":$$$$$ "$$$$$$$$ %
:" ? ^#*" S "$$$$$ ?
F L d X
& t @$$$ f
* $$$$$$$$$$& @
'*. W'$$$$$$$ h u#
Æ ^*muz* % $$$$$$": `" Æ
ÆÑ # ^**" d ÑÆ
ÆÑÆ "***" ÆÑÆ
ÆÑÆA AÆÑÆ
ÆÑÆAA. .AAÆÑÆ
ÑÑÑÑÑÑÑÑÑÑÑÑÑÑÑÑÑÑÑÑÑÑÑÑÑÑÑÑÑÑÑÑÑÑÑÑÑÑÑÑÑÑÑÑÑÑÑÑÑÑÑÑÑÑÑÑÑÑÑÑÑÑÑÑÑÑÑÑÑÑÑÑÑÑÑÑÑÑ
ÆÑÆ ÆÑÆ
ÆÑÆ A 1337x Release by MiNdSkiN ÆÑÆ
ÆÑÆ ÆÑÆ
ÑÑÑÑÑÑÑÑÑÑÑÑÑÑÑÑÑÑÑÑÑÑÑÑÑÑÑÑÑÑÑÑÑÑÑÑÑÑÑÑÑÑÑÑÑÑÑÑÑÑÑÑÑÑÑÑÑÑÑÑÑÑÑÑÑÑÑÑÑÑÑÑÑÑÑÑÑÑ
±±±±±±±± iMDb Movie Info: ±±±±±±±±
ÑÑÑÑÑÑÑÑÑÑÑÑÑÑÑÑÑÑÑÑÑÑÑÑÑÑÑÑÑÑÑÑÑÑÑÑÑÑÑÑÑÑÑÑÑÑÑÑÑÑÑÑÑÑÑÑÑÑÑÑÑÑÑÑÑÑÑÑÑÑÑÑÑÑÑÑÑÑ
ÆÑÆAA. .AAÆÑÆ
ÆÑÆA AÆÑÆ
ÆÑÆ ÆÑÆ
ÆÑÆ ÆÑÆ
ÆÑÆ |-------- Title | Stiletto ÆÑÆ
ÆÑÆ ÆÑÆ
ÆÑÆ |--------- Year | 2008 DVD STREET DATE MARCH 2009 ÆÑÆ
ÆÑÆ ÆÑÆ
ÆÑÆ |---- iMDb Rate | 0/10 ÆÑÆ
ÆÑÆ ÆÑÆ
ÆÑÆ |----- iMDb URL | http://akas.imdb.com/title/tt1027747 ÆÑÆ
ÆÑÆ ÆÑÆ
ÆÑÆ |-------- Genre | Crime / Drama / Thriller ÆÑÆ
ÆÑÆ ÆÑÆ
ÆÑÆ |--- Director/s | Nick Vallelonga ÆÑÆ
ÆÑÆ ÆÑÆ
ÆÑÆ |--------- Cast | Tom Berenger, Michael Biehn, Stana Katic ÆÑÆ
ÆÑÆ ÆÑÆ
ÆÑÆ |--------- Plot | The seemingly random killings of an assassin puzzle ÆÑÆ
ÆÑÆ her lover, a wealthy Greek crime boss whose ÆÑÆ
ÆÑÆ organization is jeopardized by his love for her and ÆÑÆ
ÆÑÆ the return of his ruthless criminal cohort, and the ÆÑÆ
ÆÑÆ detective following her rising body count. ÆÑÆ
ÆÑÆ ÆÑÆ
ÆÑÆ ÆÑÆ
ÆÑÆA AÆÑÆ
ÆÑÆAA. .AAÆÑÆ
ÑÑÑÑÑÑÑÑÑÑÑÑÑÑÑÑÑÑÑÑÑÑÑÑÑÑÑÑÑÑÑÑÑÑÑÑÑÑÑÑÑÑÑÑÑÑÑÑÑÑÑÑÑÑÑÑÑÑÑÑÑÑÑÑÑÑÑÑÑÑÑÑÑÑÑÑÑÑ
±±±±±±±± File Info: ±±±±±±±±
ÑÑÑÑÑÑÑÑÑÑÑÑÑÑÑÑÑÑÑÑÑÑÑÑÑÑÑÑÑÑÑÑÑÑÑÑÑÑÑÑÑÑÑÑÑÑÑÑÑÑÑÑÑÑÑÑÑÑÑÑÑÑÑÑÑÑÑÑÑÑÑÑÑÑÑÑÑÑ



Format : AVI
Format/Info : Audio Video Interleave
File size : 707 MiB
Duration : 1h 39mn
Overall bit rate : 994 Kbps

Video
Format : MPEG-4 Visual
Format settings, BVOP : Yes
Format settings, QPel : No
Format settings, GMC : No warppoints
Format settings, Matrix : Default
Codec ID : DX50
Codec ID/Hint : DivX 5
Duration : 1h 39mn
Bit rate : 854 Kbps
Width : 560 pixels
Height : 320 pixels
Display aspect ratio : 16/9
Frame rate : 29.969 fps
Resolution : 24 bits
Colorimetry : 4:2:0
Scan type : Progressive
Bits/(Pixel*Frame) : 0.159
Stream size : 607 MiB (86%)
Writing library : DivX 6.0.0 (UTC 2005-06-15)

Audio
Format : MPEG Audio
Format version : Version 1
Format profile : Layer 3
Codec ID : 55
Codec ID/Hint : MP3
Duration : 1h 39mn
Bit rate mode : Constant
Bit rate : 128 Kbps
Channel(s) : 2 channels
Sampling rate : 48.0 KHz
Resolution : 16 bits
Stream size : 91.0 MiB (13%)
Alignment : Split accross interleaves
Interleave, duration : 33 ms (1.00 video frame)
Interleave, preload duration : 500 ms
Writing library : LAME3.96





ÑÑÑÑÑÑÑÑÑÑÑÑÑÑÑÑÑÑÑÑÑÑÑÑÑÑÑÑÑÑÑÑÑÑÑÑÑÑÑÑÑÑÑÑÑÑÑÑÑÑÑÑÑÑÑÑÑÑÑÑÑÑÑÑÑÑÑÑÑÑÑÑÑÑÑÑÑÑ
±±±±±±±± Tracker Info: ±±±±±±±±
ÑÑÑÑÑÑÑÑÑÑÑÑÑÑÑÑÑÑÑÑÑÑÑÑÑÑÑÑÑÑÑÑÑÑÑÑÑÑÑÑÑÑÑÑÑÑÑÑÑÑÑÑÑÑÑÑÑÑÑÑÑÑÑÑÑÑÑÑÑÑÑÑÑÑÑÑÑÑ
ÆÑÆAA. .AAÆÑÆ
ÆÑÆA AÆÑÆ
ÆÑÆ http://genesis.1337x.org:1337/announce ÆÑÆ
ÆÑÆA AÆÑÆ
ÆÑÆAA. .AAÆÑÆ
ÑÑÑÑÑÑÑÑÑÑÑÑÑÑÑÑÑÑÑÑÑÑÑÑÑÑÑÑÑÑÑÑÑÑÑÑÑÑÑÑÑÑÑÑÑÑÑÑÑÑÑÑÑÑÑÑÑÑÑÑÑÑÑÑÑÑÑÑÑÑÑÑÑÑÑÑÑÑ
±±±±±±±± ±±±±±±±±
±±±±±±±± Visit: www.1337x.org For More Quality Releases ±±±±±±±±
±±±±±±±± ±±±±±±±±
ÑÑÑÑÑÑÑÑÑÑÑÑÑÑÑÑÑÑÑÑÑÑÑÑÑÑÑÑÑÑÑÑÑÑÑÑÑÑÑÑÑÑÑÑÑÑÑÑÑÑÑÑÑÑÑÑÑÑÑÑÑÑÑÑÑÑÑÑÑÑÑÑÑÑÑÑÑÑ
±±±±±±±± ±±±±±±±±
±±±±±±±± PLEASE SEED BACK AT LEAST WHAT YOU DOWNLOAD!!! ±±±±±±±±
±±±±±±±± 08/08 ±±±±±±±±
ÑÑÑÑÑÑÑÑÑÑÑÑÑÑÑÑÑÑÑÑÑÑÑÑÑÑÑÑÑÑÑÑÑÑÑÑÑÑÑÑÑÑÑÑÑÑÑÑÑÑÑÑÑÑÑÑÑÑÑÑÑÑÑÑÑÑÑÑÑÑÑÑÑÑÑÑÑÑ





...


related torrents

Torrent name

health leech seeds Size
 

comments (0)

Main Menu