Other

[IT]Crazy For Daisy DVD Rip avi 512x384

  • Download 5x Faster
  • Download torrent
  • Direct Download
  • Rate this torrent +  |  -
[IT]Crazy For Daisy DVD Rip avi 512x384

Free and Direct Download with Usenet.nl 300GB+ free


Torrent info

Name:[IT]Crazy For Daisy DVD Rip avi 512x384

Total Size: 1.36 GB

Magnet: Magnet Link

Seeds: 0

Leechers: 1

Stream: Watch Online @ Movie4u

Last Updated: 2015-09-20 21:47:53 (Update Now)

Torrent added: 2009-09-02 17:11:57





Torrent Files List


Crazy For Daisy CD1.avi (Size: 1.36 GB) (Files: 2)

 Crazy For Daisy CD1.avi

700.20 MB

 Crazy For Daisy CD2.avi

696.97 MB
 

tracker

leech seeds
 

Torrent description

General
Complete name :Crazy For DaisyCrazy For Daisy CD1.avi
Format : AVI
Format/Info : Audio Video Interleave
File size : 700 MiB
Duration : 57mn 21s
Overall bit rate : 1 707 Kbps
Writing application : Nandub v1.0rc2
Writing library : Nandub build 1852/release

Video
Format : MPEG-4 Visual
Codec ID : DIV3
Codec ID/Hint : DivX 3 Low
Duration : 57mn 21s
Bit rate : 1 545 Kbps
Width : 512 pixels
Height : 384 pixels
Display aspect ratio : 4/3
Frame rate : 29.970 fps
Resolution : 24 bits
Bits/(Pixel*Frame) : 0.262
Stream size : 634 MiB (91%)

Audio
Format : MPEG Audio
Format version : Version 1
Format profile : Layer 3
Codec ID : 55
Codec ID/Hint : MP3
Duration : 57mn 21s
Bit rate mode : Variable
Bit rate : 148 Kbps
Nominal bit rate : 160 Kbps
Channel(s) : 2 channels
Sampling rate : 48.0 KHz
Resolution : 16 bits
Stream size : 60.6 MiB (9%)
Alignment : Aligned on interleaves
Interleave, duration : 24 ms (0.72 video frame)
Interleave, preload duration : 473 ms
Writing library : LAME3.90.
Encoding settings : ABR

General
Complete name : E:Crazy For DaisyCrazy For Daisy CD2.avi
Format : AVI
Format/Info : Audio Video Interleave
File size : 697 MiB
Duration : 59mn 32s
Overall bit rate : 1 637 Kbps
Writing application : Nandub v1.0rc2
Writing library : Nandub build 1852/release

Video
Format : MPEG-4 Visual
Codec ID : DIV3
Codec ID/Hint : DivX 3 Low
Duration : 59mn 32s
Bit rate : 1 475 Kbps
Width : 512 pixels
Height : 384 pixels
Display aspect ratio : 4/3
Frame rate : 29.970 fps
Resolution : 24 bits
Bits/(Pixel*Frame) : 0.250
Stream size : 628 MiB (90%)

Audio
Format : MPEG Audio
Format version : Version 1
Format profile : Layer 3
Codec ID : 55
Codec ID/Hint : MP3
Duration : 59mn 32s
Bit rate mode : Variable
Bit rate : 148 Kbps
Channel(s) : 2 channels
Sampling rate : 48.0 KHz
Resolution : 16 bits
Stream size : 62.8 MiB (9%)
Alignment : Aligned on interleaves
Interleave, duration : 24 ms (0.72 video frame)
Interleave, preload duration : 478 ms

related torrents

Torrent name

health leech seeds Size

Crazy For Daisy

0 0 1.00 GB 0
 

comments (0)

Main Menu