Drama

Stella (1990) Bette Midler SHAREGO

  • Download 5x Faster
  • Download torrent
  • Direct Download
  • Rate this torrent +  |  -
Stella (1990) Bette Midler SHAREGO

Anonymous and free Direct Download 300GB+


Torrent info

Name:Stella (1990) Bette Midler SHAREGO

Total Size: 702.27 MB

Magnet: Magnet Link

Seeds: 0

Leechers: 0

Stream: Watch Online @ Movie4u

Last Updated: 2011-09-03 17:24:54 (Update Now)

Torrent added: 2009-09-02 17:10:55



VPN For Torrents

Torrent Files List


SHAREGO.nfo (Size: 702.27 MB) (Files: 3)

 SHAREGO.nfo

8.22 KB

 SSS.jpg

195.96 KB

 Stella (1990)(Bette Midler).avi

702.07 MB
 

Announce URL:

Torrent description

Stella (1990)-Bette Midler-SHAREGO
I.M.D.B [CODE]http://www.imdb.com/title/tt0100691/[/CODE]
Stella (1990) Bette Midler SHAREGO preview 0
Cast
(Cast overview, first billed only)

Bette Midler ... Stella Claire

John Goodman ... Ed Munn
Trini Alvarado ... Jenny Claire

Stephen Collins ... Stephen Dallas
Marsha Mason ... Janice Morrison
Eileen Brennan ... Mrs. Wilkerson
Linda Hart ... Debbie Whitman

Ben Stiller ... Jim Uptegrove

William McNamara ... Pat Robbins
John Bell ... Bob Morrison

Ashley Peldon ... Jenny (age 3)
Alisan Porter ... Jenny (age 8)
Kenneth Kimmins ... Security Guard
Bob Gerchen ... Bartender
Willie Rosario ... Dancing Waiter
Stella (1990) Bette Midler SHAREGO preview 1
Stella is a 1990 American drama film produced by Touchstone and released by Buena Vista Pictures. The screenplay by Robert Getchell is the third feature film adaptation of the 1920 novel Stella Dallas by Olive Higgins Prouty.

The title character is a vulgar and unfashionable single mother who, determined to give her daughter Jenny all the opportunities she never had, ultimately makes a selfless sacrifice to ensure her happiness. This film version differs from earlier versions in that Stella never marries the father of her child, and in fact, declines his proposal early in the film.

John Erman directed a cast that included Bette Midler as Stella and Trini Alvarado as Jenny, with John Goodman, Stephen Collins, Marsha Mason, Eileen Brennan, Linda Hart, Ben Stiller, and William McNamara in supporting roles.
FORMAT
Format : MPEG-4 Visual
Format settings, BVOP : Yes
Format settings, QPel : No
Format settings, GMC : No warppoints
Format settings, Matrix : Default
Codec ID : DX50
Codec ID/Hint : DivX 5
Duration : 1h 49mn
Bit rate : 760 Kbps
Width : 512 pixels
Height : 288 pixels
Display aspect ratio : 16/9
Frame rate : 29.970 fps
Resolution : 24 bits
Scan type : Progressive
Bits/(Pixel*Frame) : 0.172
Stream size : 593 MiB (84%)
Writing library : DivX 5.0.1 (UTC 2002-04-09)
Format : MPEG Audio
Format version : Version 1
Format profile : Layer 3
Codec ID : 55
Codec ID/Hint : MP3
Duration : 1h 49mn
Bit rate mode : Constant
Bit rate : 128 Kbps
Minimum bit rate : 128 Kbps
Channel(s) : 2 channels
Sampling rate : 48.0 KHz
Resolution : 16 bits
Stream size : 99.9 MiB (14%)
Alignment : Aligned on interleaves
Interleave, duration : 33 ms (1.00 video frame)
Interleave, preload duration : 504 ms
Writing library : LAME3.97b
Encoding settings : CBR
Stella (1990) Bette Midler SHAREGO preview 2

related torrents

Torrent name

health leech seeds Size
 


comments (0)

Main Menu