Other

[IT]BloodRayne Directors Cut German 2005 DVDRiP XViD

  • Download 5x Faster
  • Download torrent
  • Direct Download
  • Rate this torrent +  |  -
[IT]BloodRayne Directors Cut German 2005 DVDRiP XViD

Free and Direct Download with Usenet.nl 300GB+ free


Torrent info

Name:[IT]BloodRayne Directors Cut German 2005 DVDRiP XViD

Total Size: 699.85 MB

Magnet: Magnet Link

Seeds: 0

Leechers: 0

Stream: Watch Online @ Movie4u

Last Updated: 2010-09-22 07:52:09 (Update Now)

Torrent added: 2009-09-02 17:10:32





Torrent Files List


BloodRayne.Directors.Cut.German.2005.DVDRiP.XViD.avi (Size: 699.85 MB) (Files: 2)

 BloodRayne.Directors.Cut.German.2005.DVDRiP.XViD.avi

699.85 MB

 nfo.nfo

2.08 KB
 

Announce URL: http://intertracker.org/announce.php

Torrent description

Im 18. Jahrhundert will sich Rayne (Kristanna Loken) - halb Vampir, halb Mensch - an ihrem Vater Kagan (Ben

Kingsley) rächen, der ihre Mutter vergewaltigt und ermordet hat. Zuflucht findet Rayne zunächst in einem Zirkus, doch als

sie dort aus Notwehr das Blut eines Menschen trinkt, erwacht ihr Blutdurst und sie verwandelt sich in BloodRayne.

Zusammen mit den beiden Vampirjägern Sebastian (Matthew Davis) und Vladimir (Michael Madsen) macht sie sich auf

die Suche nach ihrem Vater, dem Herrscher der Vampire
General
Vollständiger Name : BloodRayne.Directors.Cut.German.2005.DVDRiP.XViD.avi
Format : AVI
Format/Info : Audio Video Interleave
Dateigre : 700 MiB
Duration : 1h 33min
Gesamte Bitrate : 1050 Kbps
Verwendetes Programm : VirtualDubMod 1.5.4.1 (build 2178/release)
verwendete Encoder-Bibliothek : VirtualDubMod build 2178/release
IAS1 : Deutsch

Video
Format : MPEG-4 Visual
Format profile : Streaming [email protected]
Format settings, BVOP : Yes
Format settings, QPel : No
Format settings, GMC : 0 warppoint
Format settings, Matrix : Custom
Codec ID : XVID
Codec ID/Hint : XviD
Duration : 1h 33min
Bitrate : 918 Kbps
Breite : 576 Pixel
Höhe : 320 Pixel
Bildseitenverhältnis : 16/9
Bildwiederholungsrate : 25.000 FPS
Auflösung : 8 bits
Colorimetry : 4:2:0
Scan type : Progressive
Bits/(Pixel*Frame) : 0.199
Stream size : 612 MiB
verwendete Encoder-Bibliothek : XviD 1.2.0-127
verwendete Encoder-Bibliothek /D : UTC 2006-07-10

Audio
Format : MPEG Audio
Format version : Version 1 / Layer 3
Codec ID : 55
Codec ID/Hint : MP3
Duration : 1h 33min
Bitraten-Modus : VBR
Bitrate : 119 Kbps
Minimum bit rate : 128 Kbps
Kanäle : 2 Kanäle
Samplingrate : 48.0 KHz
Auflösung : 16 bits
Stream size : 79.1 MiB
verwendete Encoder-Bibliothek : LAME3.97b
Kodierungseinst

related torrents

Torrent name

health leech seeds Size
 

comments (0)

Main Menu