Drama

Spring Summer Fall Winter And Spring 2003 DVDRip XviD subs eng it spa [DXO]

  • Download 5x Faster
  • Download torrent
  • Direct Download
  • Rate this torrent +  |  -
Spring Summer Fall Winter And Spring 2003 DVDRip XviD subs eng it spa [DXO]

Free and Direct Download with Usenet 300GB+ free


Torrent info

Name:Spring Summer Fall Winter And Spring 2003 DVDRip XviD subs eng it spa [DXO]

Total Size: 700.96 MB

Magnet: Magnet Link

Seeds: 97

Leechers: 7

Stream: Watch Online @ Movie4u

Last Updated: 0000-00-00 00:00:00 (Update Now)

Torrent added: 2009-09-02 17:02:32




Torrent Files List


Spring.Summer.Fall.Winter.And.Spring.2003.DVDRip.XviD-[DXO] eng.srt (Size: 700.96 MB) (Files: 5)

 Spring.Summer.Fall.Winter.And.Spring.2003.DVDRip.XviD-[DXO] eng.srt

8.38 KB

 Spring.Summer.Fall.Winter.And.Spring.2003.DVDRip.XviD-[DXO] ita.srt

8.63 KB

 Spring.Summer.Fall.Winter.And.Spring.2003.DVDRip.XviD-[DXO] spa.srt

8.60 KB

 Spring.Summer.Fall.Winter.And.Spring.2003.DVDRip.XviD-[DXO].avi

700.93 MB

 Torrent downloaded from Demonoid.com.txt

0.05 KB
 

Announce URL: http://inferno.demonoid.com:3403/announce

Torrent description

Search for DXO for more of my torrents

Audio: Korean
Subtitles: English, Italian, spanish

http://imdb.com/title/tt0374546/
Director: Ki-duk Kim
Writer: Ki-duk Kim
Release Date: 19 September 2003 (South Korea) more view trailer
Genre: Drama
Plot Outline: This film takes place in an isolated lake, where an old monk lives on a small floating temple. The wise master has also a young boy with him that teaches to become a monk. And we watch as seasons and years pass by.
Plot Keywords: Murderer / Frog / Police / Buddhist / Buddhist Monk more
Awards: 10 wins & 7 nominations

Duration: 01:45:07.30, start: 0.000000, bitrate: 932 kb/s
Stream #0.0: Video: mpeg4, yuv420p, 544x304 [PAR 1:1 DAR 34:19], 23.98 fps
Stream #0.1: Audio: mp3, 48000 Hz, stereo, s16, 128 kb/s

related torrents

Torrent name

health leech seeds Size
 

comments (0)

Main Menu