Drama

SOMERS TOWN A H 264 RIP BY KIDZCORNER

  • Download 5x Faster
  • Download torrent
  • Direct Download
  • Rate this torrent +  |  -
SOMERS TOWN A H 264 RIP BY KIDZCORNER

Free and Direct Download with Usenet.nl 300GB+ free


Torrent info

Name:SOMERS TOWN A H 264 RIP BY KIDZCORNER

Total Size: 699.55 MB

Magnet: Magnet Link

Seeds: 3

Leechers: 1

Stream: Watch Online @ Movie4u

Last Updated: 2010-07-16 04:05:44 (Update Now)

Torrent added: 2009-09-02 16:53:41





Torrent Files List


main movie.mp4 (Size: 699.55 MB) (Files: 4)

 main movie.mp4

698.73 MB

 Somers_Town_Custom-[cdcovers_cc]-front.jpg

832.82 KB

 Torrent downloaded from Demonoid.com-1.txt

0.05 KB

 Tracked by moviesb4time.biz.txt

1.35 KB
 

Announce URL: http://inferno.demonoid.com:3407/announce

Torrent description

Tomo (Thomas Turgoose - This is England), just turned sixteen and released from social care, runs away to London from a lonely, difficult life in the Midlands. Marek (Piotr Jagiello), a Polish immigrant, lives with his father, who drinks with his friends most evenings after working on a construction site. Marek is a keen photographer, quiet and sensitive - he is not comfortable in his father's world.

Both struggle to make sense of their new world and a chance meeting in Somers Town, London, leads the two to form an unexpected partnership.

In equal parts moving and hilarious, Somers Town is a lo-fi masterpiece from Shane Meadows, the director who brought us This Is England and Dead Man's Shoes
and Paul Fraser, the writer of Dead Man's Shoes and A Room For Romeo Brass.


General
Complete name : C:\Users\joker\Desktop\SOMERS TOWN-A H.264 RIP BY-KIDZCORNER\main movie.mp4
Format : MPEG-4
Format profile : Base Media / Version 2
Codec ID : mp42
File size : 699 MiB
Duration : 1h 7mn
Overall bit rate : 1 438 Kbps
Encoded date : UTC 2009-02-23 07:20:20
Tagged date : UTC 2009-02-23 11:13:52
Writing application : HandBrake 0.9.3 2008112300

Video
Format : AVC
Format/Info : Advanced Video Codec
Format profile : [email protected]
Format settings, CABAC : Yes
Format settings, ReFrames : 3 frames
Codec ID : avc1
Codec ID/Info : Advanced Video Coding
Duration : 1h 7mn
Bit rate mode : Variable
Bit rate : 1 274 Kbps
Width : 716 pixels
Height : 552 pixels
Display aspect ratio : 16/9
Frame rate mode : Variable
Frame rate : 25.000 fps
Minimum frame rate : 12.500 fps
Maximum frame rate : 25.000 fps
Resolution : 24 bits
Colorimetry : 4:2:0
Scan type : Progressive
Bits/(Pixel*Frame) : 0.129
Stream size : 619 MiB (89%)
Writing library : x264 core 65
Encoding settings : cabac=1 / ref=2 / deblock=1:-2:-1 / analyse=0x1:0x131 / me=umh / subme=9 / psy_rd=1.0:0.0 / mixed_ref=1 / me_range=16 / chroma_me=1 / trellis=0 / 8x8dct=0 / cqm=0 / deadzone=21,11 / chroma_qp_offset=-2 / threads=3 / nr=0 / decimate=1 / mbaff=0 / bframes=3 / b_pyramid=1 / b_adapt=1 / b_bias=0 / direct=3 / wpredb=1 / keyint=250 / keyint_min=25 / scenecut=40(pre) / rc=abr / bitrate=1274 / ratetol=1.0 / qcomp=0.60 / qpmin=10 / qpmax=51 / qpstep=4 / ip_ratio=1.40 / pb_ratio=1.30 / aq=1:1.00
Encoded date : UTC 2009-02-23 07:20:20
Tagged date : UTC 2009-02-23 11:13:52

Audio
Format : AAC
Format/Info : Advanced Audio Codec
Format version : Version 4
Format profile : LC
Format settings, SBR : No
Codec ID : 40
Duration : 1h 7mn
Bit rate mode : Variable
Bit rate : 160 Kbps
Maximum bit rate : 213 Kbps
Channel(s) : 2 channels
Channel positions : L R
Sampling rate : 48.0 KHz
Resolution : 16 bits
Stream size : 77.7 MiB (11%)
Language : English
Encoded date : UTC 2009-02-23 07:20:20
Tagged date : UTC 2009-02-23 11:13:47

related torrents

Torrent name

health leech seeds Size
 

comments (0)

Main Menu