Drama

SLUMDOG [email protected] H 264 RIP[ENG]

  • Download 5x Faster
  • Download torrent
  • Direct Download
  • Rate this torrent +  |  -

Torrent info

Name:SLUMDOG [email protected] H 264 RIP[ENG]

Total Size: 891.62 MB

Magnet: Magnet Link

Seeds: 0

Leechers: 0

Stream: Watch Online @ Movie4u

Last Updated: 2010-01-19 13:02:10 (Update Now)

Torrent added: 2009-09-02 16:46:25



VPN For Torrents

Torrent Files List


9540838x.jpg (Size: 891.62 MB) (Files: 3)

 9540838x.jpg

38.55 KB

 sdog.mp4

891.58 MB

 Torrent downloaded from Demonoid.com.txt

0.05 KB
 

Announce URL: http://inferno.demonoid.com:3414/announce

Torrent description

Winner of 8 Acadamy Awards and 7 Baftas including Best Film and Best Director.

Today is the biggest day in Jamal Malik's life.

A Penniless, eighteen year-old orphan from the slums of Mumbai, he's one question away from winning a staggering 20 million rupees on India's "Who Wants To Be A Millionaire?" But when the show breaks for the night, suddenly, he is arrested on suspicion of cheating. After all, how could an uneducated street kid possibly know so much? Determined to get to the bottom of Jamal's story, the jaded Police Inspector spends the night probing Jamal's incredible past, from his riveting tales of the slums where he and his brother Salim survived by their wits to his hair-raising encounters with local gangs to his heartbreak over Latika, the unforgettable girl he loved and lost.

Each chapter of Jamal's increasingly layered story reveals where he learned the answers to the show's seemingly impossible quizzes. But one question remains a mystery: what is this young man with no apparent desire for riches really doing on the game show?

When the new day dawns and Jamal returns to answer the final question, the Inspector and sixty million viewers are about to find out... The result is the sweeping, stylish, intoxicatingly human experience of Slumdog Milliomaire, the new film from acclaimed director Danny Boyle (Trainspotting, Shallow Grave, Millions, 28 Days Later, Sunshine). Part exhilarating love story, part eye-catching journey into the underbelly of the so-called "maximum city" of Mumbai, part stirring tale of an Everyman's triumph against a harsh, cynical world, Slumdog Millionaire is a visceral, action-packed Dickensian epic for the 21st Century. At the heart of its exhuberant storytelling lies the the intriguing question of how anyone comes to know the things they know about life and love.
---------------------------------------------
Format : MPEG-4
Format profile : Base Media / Version 2
Codec ID : mp42
File size : 892 MiB
Duration : 1h 55mn
Overall bit rate : 1 082 Kbps
Encoded date : UTC 2009-06-05 17:14:59
Tagged date : UTC 2009-06-05 22:26:00
Writing application : HandBrake 0.9.3 2008112300

Video
Format : AVC
Format/Info : Advanced Video Codec
Format profile : [email protected]
Format settings, CABAC : Yes
Format settings, ReFrames : 3 frames
Codec ID : avc1
Codec ID/Info : Advanced Video Coding
Duration : 1h 55mn
Bit rate mode : Variable
Bit rate : 919 Kbps
Nominal bit rate : 928 Kbps
Width : 720 pixels
Height : 426 pixels
Display aspect ratio : 2.404
Frame rate mode : Variable
Frame rate : 25.000 fps
Minimum frame rate : 12.500 fps
Maximum frame rate : 25.000 fps
Resolution : 24 bits
Colorimetry : 4:2:0
Scan type : Progressive
Bits/(Pixel*Frame) : 0.120
Stream size : 757 MiB (85%)
Writing library : x264 core 65

Encoded date : UTC 2009-06-05 17:14:59
Tagged date : UTC 2009-06-05 22:26:00

Audio
Format : AAC
Format/Info : Advanced Audio Codec
Format version : Version 4
Format profile : LC
Format settings, SBR : No
Codec ID : 40
Duration : 1h 55mn
Bit rate mode : Variable
Bit rate : 160 Kbps
Maximum bit rate : 234 Kbps
Channel(s) : 2 channels
Channel positions : L R
Sampling rate : 48.0 KHz
Resolution : 16 bits
Stream size : 132 MiB (15%)
Language : English
Encoded date : UTC 2009-06-05 17:14:59
Tagged date : UTC 2009-06-05 22:25:55

related torrents

Torrent name

health leech seeds Size
 


comments (0)

Main Menu